<?xml version="1.0" standalone="no"?>
<!DOCTYPE svg PUBLIC "-//W3C//DTD SVG 1.1//EN" "http://www.w3.org/Graphics/SVG/1.1/DTD/svg11.dtd" >
<svg xmlns="http://www.w3.org/2000/svg">
<metadata>Generated by IcoMoon</metadata>
<defs>
<font id="pixelicons-free-line" horiz-adv-x="1024">
<font-face units-per-em="1024" ascent="960" descent="-64" />
<missing-glyph horiz-adv-x="1024" />
<glyph unicode="&#x20;" horiz-adv-x="512" d="" />
<glyph unicode="&#xe900;" glyph-name="d-glass" d="M864 896h-64c-17.673 0-32-14.327-32-32s14.327-32 32-32v0h64c53.019 0 96-42.981 96-96v0-288h-896v288c0 53.019 42.981 96 96 96v0h64c17.673 0 32 14.327 32 32s-14.327 32-32 32v0h-64c-88.366 0-160-71.634-160-160v0-704c0-17.673 14.327-32 32-32v0h352c14.919 0.004 27.452 10.218 30.992 24.034l0.048 0.222 57.984 231.744h77.952l57.92-231.744c3.589-14.041 16.126-24.256 31.049-24.256 0.019 0 0.039 0 0.058 0h351.997c17.673 0 32 14.327 32 32v0 704c0 88.366-71.634 160-160 160v0zM960 64h-294.976l-57.92 231.744c-3.589 14.041-16.126 24.256-31.049 24.256-0.019 0-0.039 0-0.058 0h-127.997c-14.919-0.004-27.452-10.218-30.992-24.034l-0.048-0.222-57.984-231.744h-294.976v320h896zM160 128h128c14.919 0.004 27.452 10.218 30.992 24.034l0.048 0.222 32 128c0.604 2.325 0.951 4.994 0.951 7.744 0 17.67-14.322 31.995-31.991 32h-160c-17.673 0-32-14.327-32-32v0-128c0-17.673 14.327-32 32-32v0zM192 256h86.976l-16-64h-70.976zM704.96 152.256c3.588-14.038 16.121-24.252 31.040-24.256h128c17.673 0 32 14.327 32 32v0 128c0 17.673-14.327 32-32 32v0h-160c-17.669-0.005-31.991-14.33-31.991-32 0-2.75 0.347-5.419 0.999-7.966l-0.048 0.222zM832 256v-64h-70.976l-16 64z" />
<glyph unicode="&#xe901;" glyph-name="android" d="M96 640c-17.673 0-32-14.327-32-32v0-320c0-17.673 14.327-32 32-32s32 14.327 32 32v0 320c0 17.673-14.327 32-32 32v0zM864 640c-17.673 0-32-14.327-32-32v0-320c0-17.673 14.327-32 32-32s32 14.327 32 32v0 320c0 17.673-14.327 32-32 32v0zM763.584 911.808c3.31 4.958 5.282 11.054 5.282 17.61 0 17.673-14.327 32-32 32-12.274 0-22.934-6.91-28.302-17.052l-0.084-0.174-60.608-103.168c-46.469 34.365-104.903 55.005-168.157 55.005-61.208 0-117.901-19.326-164.312-52.208l0.886 0.596-65.408 100.928c-5.79 8.859-15.661 14.631-26.88 14.631-17.677 0-32.007-14.33-32.007-32.007 0-6.458 1.913-12.469 5.202-17.498l-0.075 0.122 70.784-109.376c-46.87-50.613-75.69-118.528-75.904-193.173v-448.043c0-17.673 14.327-32 32-32v0h32v-96c0-53.019 42.981-96 96-96s96 42.981 96 96v0 96h64v-96c0-53.019 42.981-96 96-96s96 42.981 96 96v0 96h32c17.673 0 32 14.327 32 32v0 448c-0.428 72.569-27.677 138.692-72.324 189.035l0.26-0.299zM638.336 766.656c32.819-33.33 55.348-76.878 62.384-125.443l0.144-1.213h-441.6c15.948 109.127 108.899 191.982 221.201 191.982 61.64 0 117.451-24.962 157.874-65.329l-0.002 0.002zM672 192c-17.673 0-32-14.327-32-32v0-128c0-17.673-14.327-32-32-32s-32 14.327-32 32v0 128c0 17.673-14.327 32-32 32v0h-128c-17.673 0-32-14.327-32-32v0-128c0-17.673-14.327-32-32-32s-32 14.327-32 32v0 128c0 17.673-14.327 32-32 32v0h-32v384h448v-384zM545.28 704c17.673 0 32 14.327 32 32s-14.327 32-32 32v0h-0.64c-17.673 0-32-14.327-32-32v0c0-0.002 0-0.004 0-0.006 0-17.673 14.327-32 32-32 0.225 0 0.45 0.002 0.673 0.007l-0.033-0.001zM417.28 704c17.673 0 32 14.327 32 32s-14.327 32-32 32v0h-0.64c-17.673 0-32-14.327-32-32v0c0-0.002 0-0.004 0-0.006 0-17.673 14.327-32 32-32 0.225 0 0.45 0.002 0.673 0.007l-0.033-0.001z" />
<glyph unicode="&#xe902;" glyph-name="apple" d="M928.896 253.504c-64.227 25.581-109.617 85.479-113.706 156.449l-0.022 0.479c-0.404 4.445-0.635 9.615-0.635 14.838 0 65.601 36.367 122.709 90.041 152.261l0.898 0.453c9.857 5.581 16.4 15.996 16.4 27.94 0 7.508-2.586 14.412-6.915 19.87l0.051-0.066c-47.693 63.954-121.829 105.905-205.9 109.549l-0.564 0.019c-22.378-0.004-44.11-2.757-64.881-7.941l1.841 0.389c8.581 7.719 16.391 15.874 23.563 24.573l0.309 0.387c33.48 41.372 53.749 94.633 53.749 152.629 0 9.587-0.554 19.045-1.631 28.343l0.107-1.133c-2.268 15.647-15.589 27.534-31.687 27.534-0.786 0-1.565-0.028-2.337-0.084l0.103 0.006c-67.538-7.922-126.028-41.418-166.44-90.386l-0.344-0.43c-34.187-40.075-54.986-92.475-54.986-149.732 0-3.904 0.097-7.785 0.288-11.642l-0.021 0.542c-2.944 1.088-5.632 1.792-8.64 2.88-32.436 14.024-70.116 22.708-109.676 23.925l-0.468 0.011c-95.794-4.901-178.267-57.663-224.452-134.676l-0.7-1.26c-80.384-126.144-57.6-343.552 54.464-516.992 43.648-67.648 104.896-145.472 188.992-146.24h1.664c29.576 0.611 57.249 8.189 81.623 21.149l-0.983-0.477c23.58 12.57 51.566 19.956 81.276 19.968h0.004c1.381 0.044 3.004 0.069 4.634 0.069 27.749 0 53.795-7.288 76.329-20.055l-0.77 0.402c22.3-13.259 49.167-21.097 77.864-21.097 1.246 0 2.489 0.015 3.728 0.044l-0.184-0.003c82.24 0.704 143.232 78.080 192 153.6 23.068 34.594 44.503 74.293 62.19 115.968l1.81 4.8c1.749 3.829 2.768 8.305 2.768 13.019 0 13.536-8.404 25.109-20.279 29.785l-0.217 0.075zM570.496 828.864c23.167 27.258 53.134 48.065 87.299 59.866l1.405 0.422c-4.786-37.296-19.253-70.531-40.775-97.968l0.327 0.432c-22.077-28.749-52.899-49.807-88.451-59.26l-1.149-0.26c4.56 37.212 19.442 70.296 41.657 97.077l-0.249-0.309zM829.12 124.864c-37.248-57.6-86.656-124.032-138.944-124.416-19.807 0.804-38.185 6.208-54.32 15.166l0.624-0.318c-30.741 16.138-67.164 25.607-105.798 25.607-0.65 0-1.3-0.003-1.949-0.008l0.1 0.001c-39.151-0.007-76.092-9.468-108.664-26.225l1.336 0.625c-15.955-8.787-34.815-14.338-54.879-15.285l-0.289-0.011c-53.824 0.512-100.864 62.72-135.872 116.992-110.976 171.968-110.72 359.104-54.272 448 35.36 60.335 98.009 101.359 170.56 106.142l0.64 0.034c32.2-1.336 62.366-8.599 89.912-20.721l-1.592 0.625c27.203-11.934 58.8-19.512 91.986-20.972l0.558-0.020c30.871 1.21 59.763 8.443 85.94 20.547l-1.396-0.579c28.199 12.935 61.117 20.725 95.789 21.309l0.211 0.003c52.223-2.165 98.857-24.435 132.692-59.219l0.044-0.045c-55.517-43.489-90.862-110.531-90.862-185.828 0-7.152 0.319-14.229 0.943-21.219l-0.065 0.903c5.164-85.027 53.285-157.762 122.766-197.259l1.202-0.629c-14.768-32.277-30.227-59.652-47.679-85.572l1.343 2.116z" />
<glyph unicode="&#xe903;" glyph-name="artificial-intelligent" d="M832 519.552v56.448c0 0.007 0 0.016 0 0.024 0 212.077-171.923 384-384 384s-384-171.923-384-384c0-93.105 33.135-178.47 88.256-244.948l-0.512 0.636c23.962-27.363 38.994-63.077 40.249-102.269l0.007-0.259v-197.184c0.008-15.813 11.484-28.944 26.562-31.525l0.19-0.027 384-64c1.547-0.285 3.327-0.448 5.145-0.448 0.036 0 0.072 0 0.108 0h-0.006c17.673 0 32 14.327 32 32v0 122.24l117.696-19.2c3.098-0.531 6.666-0.835 10.305-0.835 35.235 0 63.819 28.473 63.999 63.666v154.129h64c17.673 0.001 31.999 14.327 31.999 32 0 5.226-1.253 10.16-3.475 14.517l0.084-0.181zM800 352c-17.673 0-32-14.327-32-32v0-186.048l-154.88 25.6c-1.539 0.262-3.312 0.412-5.12 0.412-17.661 0-31.98-14.307-32-31.962v-122.242l-320 53.376v170.048c-0.998 55.022-21.648 105.036-55.204 143.499l0.228-0.267c-45.449 54.849-73.024 125.943-73.024 203.477 0 176.731 143.269 320 320 320 176.693 0 319.939-143.208 320-319.887v-64.006c0-5.227 1.254-10.16 3.476-14.517l-0.084 0.181 72.832-145.664zM608 640c17.673 0 32 14.327 32 32s-14.327 32-32 32v0h-32v32c0 17.673-14.327 32-32 32v0h-32v32c0 17.673-14.327 32-32 32s-32-14.327-32-32v0-32h-64v32c0 17.673-14.327 32-32 32s-32-14.327-32-32v0-32h-32c-17.673 0-32-14.327-32-32v0-32h-32c-17.673 0-32-14.327-32-32s14.327-32 32-32v0h32v-64h-32c-17.673 0-32-14.327-32-32s14.327-32 32-32v0h32v-32c0-17.673 14.327-32 32-32v0h32v-32c0-17.673 14.327-32 32-32s32 14.327 32 32v0 32h64v-32c0-17.673 14.327-32 32-32s32 14.327 32 32v0 32h32c17.673 0 32 14.327 32 32v0 32h32c17.673 0 32 14.327 32 32s-14.327 32-32 32v0h-32v64zM512 512h-192v192h192z" />
<glyph unicode="&#xe904;" glyph-name="bags" d="M128-64h224c17.673 0 32 14.327 32 32s-14.327 32-32 32v0h-224c-35.346 0-64 28.654-64 64v0 576h64v-32c0-17.673 14.327-32 32-32s32 14.327 32 32v0 32h256v-32c0-17.673 14.327-32 32-32s32 14.327 32 32v0 32h64v-32c0-17.673 14.327-32 32-32s32 14.327 32 32v0 64c0 17.673-14.327 32-32 32v0h-96v64c0 106.039-85.961 192-192 192s-192-85.961-192-192v0-64h-96c-17.673 0-32-14.327-32-32v0-608c0-70.692 57.308-128 128-128v0zM192 768c0 70.692 57.308 128 128 128s128-57.308 128-128v0-64h-256zM892.736 448c-15.344 73.633-79.704 128.16-156.8 128.16s-141.456-54.527-156.618-127.12l-0.182-1.040h-99.136c-17.673 0-32-14.327-32-32v0-352c0-70.692 57.308-128 128-128v0h320c70.692 0 128 57.308 128 128v0 352c0 17.673-14.327 32-32 32v0zM736 512c41.389-0.177 76.58-26.519 89.901-63.331l0.211-0.669h-180.224c13.532 37.481 48.723 63.823 90.090 64h0.022zM960 64c0-35.346-28.654-64-64-64v0h-320c-35.346 0-64 28.654-64 64v0 320h64v-32c0-17.673 14.327-32 32-32s32 14.327 32 32v0 32h192v-32c0-17.673 14.327-32 32-32s32 14.327 32 32v0 32h64z" />
<glyph unicode="&#xe905;" glyph-name="bank" d="M32 0h896c17.673 0 32 14.327 32 32v0 96c0 35.346-28.654 64-64 64v0 320h32c17.673 0 32 14.327 32 32v0 64c-0.004 11.83-6.427 22.159-15.974 27.694l-0.154 0.082-448 256c-4.59 2.695-10.109 4.287-16 4.287s-11.41-1.592-16.151-4.369l0.151 0.082-448-256c-9.561-5.653-15.872-15.909-15.872-27.639 0-0.048 0-0.097 0-0.145v0.007-64c0-17.673 14.327-32 32-32v0h32v-320c-35.346 0-64-28.654-64-64v0-96c0-17.673 14.327-32 32-32v0zM832 192h-64v320h64zM576 192v320h128v-320zM448 192v320h64v-320zM256 192v320h128v-320zM64 589.44l416 237.696 416-237.696v-13.44h-832zM128 512h64v-320h-64zM64 128h832v-64h-832z" />
<glyph unicode="&#xe906;" glyph-name="basket-ball" d="M512-64c282.679 0.12 511.789 229.304 511.789 512 0 282.77-229.23 512-512 512s-512-229.23-512-512c0-141.485 57.389-269.566 150.158-362.236l0.004-0.004c92.391-92.524 220.099-149.761 361.175-149.761 0.307 0 0.614 0 0.921 0.001h-0.048zM173.76 741.056l292.992-293.056-114.752-114.88c-77.941 70.981-174.752 122.58-282.015 146.429l-4.129 0.771c7.277 100.564 46.887 190.69 108.361 261.272l-0.457-0.536zM958.208 481.472c-93.571 23.070-174.719 67.105-241.344 126.98l0.512-0.452 132.928 132.928c60.772-69.724 100.332-159.358 107.813-257.955l0.091-1.501zM850.304 155.072l-293.056 292.928 114.752 114.88c77.941-70.981 174.752-122.58 282.015-146.429l4.129-0.771c-7.277-100.564-46.887-190.69-108.361-261.272l0.457 0.536zM352 242.624c59.47-66.104 103.547-147.251 125.85-237.001l0.806-3.831c-100.127 7.582-189.784 47.165-260.053 108.423l0.533-0.455zM397.248 287.872l114.752 114.88 292.992-293.056c-70.014-61.048-160.121-100.682-259.225-107.884l-1.447-0.084c-24.573 111.446-76.181 208.31-147.646 286.768l0.446-0.496zM672.448 653.376c-59.588 66.084-103.771 147.229-126.166 236.998l-0.81 3.834c100.121-7.557 189.779-47.12 260.054-108.36l-0.534 0.456zM626.88 608l-114.88-114.752-292.992 293.056c70.016 61.044 160.121 100.677 259.223 107.883l1.449 0.085c24.57-111.447 76.178-208.311 147.645-286.767l-0.445 0.495zM306.88 288l-133.12-133.056c-60.819 69.751-100.406 159.433-107.877 258.085l-0.091 1.499c93.571-23.070 174.719-67.105 241.344-126.98l-0.512 0.452z" />
<glyph unicode="&#xe907;" glyph-name="basket" d="M992 640h-172.224l-119.168 238.336c-5.371 10.583-16.173 17.709-28.64 17.709-17.68 0-32.013-14.333-32.013-32.013 0-5.214 1.246-10.136 3.457-14.486l-0.084 0.182 104.896-209.728h-472.448l104.832 209.664c2.127 4.168 3.373 9.090 3.373 14.304 0 17.68-14.333 32.013-32.013 32.013-12.467 0-23.269-7.126-28.556-17.527l-0.084-0.182-119.104-238.272h-172.224c-17.673 0-32-14.327-32-32v0-128c0-17.673 14.327-32 32-32v0h38.976l121.92-487.744c3.589-14.041 16.126-24.256 31.049-24.256 0.019 0 0.039 0 0.058 0h575.997c14.919 0.004 27.452 10.218 30.992 24.034l0.048 0.222 121.984 487.744h38.976c17.673 0 32 14.327 32 32v0 128c0 17.673-14.327 32-32 32v0zM774.976 0h-525.952l-112 448h749.952zM960 512h-896v64h896zM512 64c17.673 0 32 14.327 32 32v0 192c0 17.673-14.327 32-32 32s-32-14.327-32-32v0-192c0-17.673 14.327-32 32-32v0zM352 64c17.673 0 32 14.327 32 32v0 192c0 17.673-14.327 32-32 32s-32-14.327-32-32v0-192c0-17.673 14.327-32 32-32v0zM672 64c17.673 0 32 14.327 32 32v0 192c0 17.673-14.327 32-32 32s-32-14.327-32-32v0-192c0-17.673 14.327-32 32-32v0z" />
<glyph unicode="&#xe908;" glyph-name="beer" d="M800 704c-0.021 88.35-71.647 159.963-160 159.963-25.906 0-50.374-6.157-72.020-17.087l0.916 0.419c-20.816 65.849-81.363 112.75-152.864 112.75s-132.048-46.901-152.554-111.616l-0.31-1.133c-20.882 10.741-45.566 17.036-71.722 17.036-88.083 0-159.488-71.405-159.488-159.488 0-36.169 12.040-69.525 32.33-96.281l-0.288 0.397v-544.96c0-70.692 57.308-128 128-128v0h448c70.692 0 128 57.308 128 128v0 64h96c53.019 0 96 42.981 96 96v0 256c0 53.019-42.981 96-96 96v0h-96v32.96c19.886 26.115 31.895 59.165 32 95.016v0.024zM192 800c0.152 0.001 0.332 0.001 0.512 0.001 28.655 0 54.297-12.898 71.437-33.206l0.115-0.139c5.904-6.865 14.6-11.186 24.306-11.186 17.673 0 32 14.327 32 32 0 1.712-0.134 3.392-0.393 5.031l0.024-0.181c-0.092 1.149-0.144 2.489-0.144 3.84s0.052 2.691 0.155 4.016l-0.011-0.176c0 53.019 42.981 96 96 96s96-42.981 96-96v0c0.092-1.149 0.144-2.489 0.144-3.84s-0.052-2.691-0.155-4.016l0.011 0.176c-0.255-1.518-0.401-3.266-0.401-5.049 0-17.673 14.327-32 32-32 9.827 0 18.619 4.43 24.489 11.401l0.040 0.048c17.254 20.409 42.872 33.281 71.498 33.281 0.132 0 0.263 0 0.395-0.001h-0.020c53.019 0 96-42.981 96-96s-42.981-96-96-96v0c-0.218-0.002-0.475-0.003-0.733-0.003-23.109 0-44.236 8.482-60.44 22.502l0.117-0.099c-5.559 4.783-12.847 7.695-20.815 7.695-11.421 0-21.444-5.983-27.107-14.986l-0.078-0.133c-18.056-27.004-48.424-44.547-82.89-44.547-28.177 0-53.615 11.725-71.702 30.561l-0.032 0.034c-5.904 6.875-14.607 11.203-24.32 11.203-17.673 0-32-14.327-32-32 0-0.023 0-0.047 0-0.070v0.004-108.16c0-17.673-14.327-32-32-32s-32 14.327-32 32v0 100.48c0 0.007 0 0.014 0 0.022 0 17.673-14.327 32-32 32-3.452 0-6.776-0.547-9.89-1.558l0.226 0.064c-6.287-1.917-13.513-3.020-20.996-3.020-0.471 0-0.941 0.004-1.41 0.013l0.070-0.001c-53.019 0-96 42.981-96 96s42.981 96 96 96v0zM704 64c0-35.346-28.654-64-64-64v0h-448c-35.346 0-64 28.654-64 64v0 493.568c18.83-8.54 40.827-13.532 63.987-13.568h0.013v-64c0.177-41.389 26.519-76.58 63.331-89.901l0.669-0.211v-229.888c0-17.673 14.327-32 32-32s32 14.327 32 32v0 229.888c37.481 13.532 63.823 48.723 64 90.090v45.526c18.666-8.016 40.391-12.677 63.205-12.677 46.176 0 87.892 19.095 117.682 49.819l0.041 0.042c21.448-11.768 46.997-18.691 74.163-18.691 0.32 0 0.639 0.001 0.959 0.003h-0.049c23.173 0.036 45.17 5.028 65.002 13.972l-1.002-0.404zM864 512c17.673 0 32-14.327 32-32v0-256c0-17.673-14.327-32-32-32v0h-96v320zM544 448c-17.673 0-32-14.327-32-32v0-256c0-17.673 14.327-32 32-32s32 14.327 32 32v0 256c0 17.673-14.327 32-32 32v0z" />
<glyph unicode="&#xe909;" glyph-name="bookmark" d="M960 960h-896c-35.346 0-64-28.654-64-64v0-896c0-35.346 28.654-64 64-64v0h896c35.346 0 64 28.654 64 64v0 896c0 35.346-28.654 64-64 64v0zM960 896v-128h-896v128zM960-32v32h-896v704h896v-704zM865.28 800c17.673 0 32 14.327 32 32s-14.327 32-32 32v0h-0.64c-17.535-0.181-31.68-14.438-31.68-31.998 0-0.001 0-0.001 0-0.002v0c0 0 0-0.001 0-0.002 0-17.673 14.327-32 32-32 0.112 0 0.225 0.001 0.337 0.002h-0.017zM737.28 800c17.673 0 32 14.327 32 32s-14.327 32-32 32v0h-0.64c-17.535-0.181-31.68-14.438-31.68-31.998 0-0.001 0-0.001 0-0.002v0c0 0 0-0.001 0-0.002 0-17.673 14.327-32 32-32 0.112 0 0.225 0.001 0.337 0.002h-0.017zM676.864 453.376l-93.696 14.4-42.176 89.6c-5.877 10.083-16.64 16.752-28.96 16.752s-23.083-6.669-28.874-16.594l-0.086-0.159-42.176-89.6-93.696-14.4c-15.477-2.425-27.177-15.664-27.177-31.635 0-8.715 3.484-16.616 9.135-22.387l68.731-70.394-16.256-99.84c-0.267-1.554-0.42-3.344-0.42-5.17 0-17.673 14.327-32 32-32 5.699 0 11.050 1.49 15.685 4.101l-0.16-0.083 83.264 46.144 83.2-46.144c4.475-2.528 9.826-4.018 15.524-4.018 17.673 0 32 14.327 32 32 0 1.826-0.153 3.616-0.447 5.358l0.026-0.188-16.128 99.84 68.736 70.4c5.646 5.765 9.129 13.667 9.129 22.381 0 15.971-11.7 29.209-26.997 31.611l-0.181 0.023zM569.088 362.112c-5.64-5.764-9.121-13.662-9.121-22.373 0-1.818 0.152-3.6 0.443-5.335l-0.026 0.188 8.256-50.752-41.216 22.784c-4.466 2.516-9.804 3.998-15.488 3.998s-11.022-1.482-15.649-4.081l0.161 0.083-41.216-22.784 8.256 50.752c0.265 1.547 0.417 3.33 0.417 5.147 0 8.711-3.48 16.608-9.126 22.378l-36.538 37.434 48.96 7.488c10.732 1.677 19.573 8.486 24.045 17.792l0.083 0.192 20.672 43.648 20.48-43.648c4.59-9.544 13.511-16.369 24.144-17.962l0.176-0.022 49.024-7.488z" />
<glyph unicode="&#xe90a;" glyph-name="box" d="M1004.224 957.568c-3.612 1.536-7.813 2.43-12.223 2.432h-704.001c-8.844-0.047-16.842-3.632-22.658-9.41l-255.998-255.998c-5.738-5.808-9.298-13.78-9.344-22.583v-704.009c0-17.673 14.327-32 32-32v0h704c8.844 0.047 16.842 3.632 22.658 9.41l255.998 255.998c5.738 5.808 9.298 13.78 9.344 22.583v704.009c-0.002 13.261-8.071 24.637-19.566 29.489l-0.21 0.079zM320 640h384v-384h-384zM722.752 704h-402.752v192h594.752zM256 704h-146.752l146.752 146.752zM64 640h192v-402.752l-192-192zM301.248 192h402.752v-192h-594.752zM768 192h146.752l-146.752-146.752zM960 256h-192v402.752l192 192z" />
<glyph unicode="&#xe90b;" glyph-name="calculator" d="M960 960h-832c-35.346 0-64-28.654-64-64v0-896c0-35.346 28.654-64 64-64v0h832c35.346 0 64 28.654 64 64v0 896c0 35.346-28.654 64-64 64v0zM960-32v32h-832v896h832v-896zM352 512h-128c-17.673 0-32-14.327-32-32v0-128c0-17.673 14.327-32 32-32v0h128c17.673 0 32 14.327 32 32v0 128c0 17.673-14.327 32-32 32v0zM320 384h-64v64h64zM608 512h-128c-17.673 0-32-14.327-32-32v0-128c0-17.673 14.327-32 32-32v0h128c17.673 0 32 14.327 32 32v0 128c0 17.673-14.327 32-32 32v0zM576 384h-64v64h64zM864 832h-640c-17.673 0-32-14.327-32-32v0-192c0-17.673 14.327-32 32-32v0h640c17.673 0 32 14.327 32 32v0 192c0 17.673-14.327 32-32 32v0zM832 640h-576v128h576zM352 256h-128c-17.673 0-32-14.327-32-32v0-128c0-17.673 14.327-32 32-32v0h128c17.673 0 32 14.327 32 32v0 128c0 17.673-14.327 32-32 32v0zM320 128h-64v64h64zM608 256h-128c-17.673 0-32-14.327-32-32v0-128c0-17.673 14.327-32 32-32v0h128c17.673 0 32 14.327 32 32v0 128c0 17.673-14.327 32-32 32v0zM576 128h-64v64h64zM864 512h-128c-17.673 0-32-14.327-32-32v0-384c0-17.673 14.327-32 32-32v0h128c17.673 0 32 14.327 32 32v0 384c0 17.673-14.327 32-32 32v0zM832 128h-64v320h64z" />
<glyph unicode="&#xe90c;" glyph-name="camera-shutter" d="M600.064 951.872h-1.472c-26.804 5.053-57.638 7.944-89.148 7.944-149.373 0-283.575-64.957-375.898-168.164l-0.426-0.484c-82.066-90.345-132.309-210.889-132.309-343.168 0-282.322 228.867-511.189 511.189-511.189 150.043 0 284.988 64.644 378.503 167.6l0.377 0.421c82.564 90.386 133.14 211.212 133.14 343.852 0 251.383-181.666 460.336-420.876 502.736l-3.080 0.452zM916.16 640h-437.76l134.4 244.224c134.98-32.278 244.252-122.151 302.19-241.552l1.17-2.672zM581.12 320h-138.24l-70.4 128 70.4 128h138.24l70.4-128zM545.088 894.336l-148.288-270.144s-0.576-0.448-0.704-0.768l-59.968-108.8-138.88 251.712c80.682 80.136 191.853 129.664 314.592 129.664 0.056 0 0.113 0 0.169 0h-0.009c11.136 0 22.080-0.896 33.088-1.664zM152.768 714.496l217.088-394.496h-286.976c-11.97 38.33-18.866 82.401-18.866 128.083 0 100.453 33.343 193.119 89.565 267.533l-0.811-1.12zM107.84 256h438.4l-134.4-244.352c-135.26 32.13-244.793 122.092-302.83 241.681l-1.17 2.671zM479.552 1.664l148.8 270.976c0 0.448 0 0.896 0.384 1.28l59.2 107.712 138.688-251.968c-80.682-80.136-191.853-129.664-314.592-129.664-0.012 0-0.023 0-0.035 0h0.002c-10.944 0-21.696 0.832-32.448 1.664zM871.232 181.504l-217.088 394.496h286.976c11.97-38.33 18.866-82.401 18.866-128.083 0-100.453-33.343-193.119-89.565-267.533l0.811 1.12z" />
<glyph unicode="&#xe90d;" glyph-name="car-key" d="M1000.896 138.304c-5.335 10.654-16.163 17.843-28.67 17.856h-58.946v58.24c0 17.673-14.327 32-32 32v0h-58.24v58.24c0 0.017 0 0.037 0 0.057 0 8.822-3.57 16.811-9.345 22.599l-204.799 204.799 45.312 45.312c17.366 17.372 28.107 41.367 28.107 67.872s-10.741 50.5-28.108 67.872l-181.312 181.248c-41.1 39.259-96.912 63.421-158.368 63.421s-117.268-24.162-158.456-63.505l0.088 0.084-90.56-90.496c-40.522-40.534-65.584-96.524-65.584-158.368s25.062-117.834 65.585-158.369l180.991-181.055c17.372-17.366 41.367-28.107 67.872-28.107s50.5 10.741 67.872 28.108l45.312 45.312 204.8-204.8c5.788-5.774 13.776-9.344 22.599-9.344 0.020 0 0.040 0 0.060 0h58.237v-58.176c0-17.673 14.327-32 32-32v0h58.176v-58.944c0.013-12.509 7.202-23.337 17.672-28.588l0.184-0.084c27.721-13.751 60.215-22.291 94.577-23.477l0.399-0.011c1.263-0.053 2.745-0.083 4.234-0.083 28.853 0 55.069 11.291 74.47 29.696l-0.048-0.045c59.008 59.712 11.52 161.344 5.888 172.736zM337.152 351.296c-5.791-5.789-13.789-9.369-22.624-9.369s-16.833 3.58-22.624 9.369l-181.056 181.056c-28.944 28.953-46.846 68.946-46.846 113.12s17.902 84.167 46.846 113.12l90.496 90.56c28.953 28.944 68.946 46.846 113.12 46.846s84.167-17.902 113.12-46.846l181.12-181.056c5.789-5.791 9.369-13.789 9.369-22.624s-3.58-16.833-9.369-22.624l-67.008-67.008c-0.32 0-0.768-0.384-1.088-0.768s-0.448-0.768-0.768-1.088l-133.824-133.824c-0.32 0-0.768-0.384-1.088-0.768s-0.448-0.768-0.768-1.088zM949.76 10.624c-18.304-17.856-56.768-9.984-81.92-1.344v69.44c0 17.673-14.327 32-32 32v0h-58.24v58.24c0 17.673-14.327 32-32 32v0h-76.8l-195.84 195.84 90.24 90.24 195.712-195.712v-76.8c0-17.673 14.327-32 32-32v0h58.176v-58.176c0-17.673 14.327-32 32-32v0h69.44c8.512-24.576 17.024-63.68-0.768-81.728zM446.4 694.656l-67.904 67.84c-22.995 22.231-54.359 35.931-88.923 35.931-70.692 0-128-57.308-128-128 0-34.564 13.7-65.928 35.966-88.959l-0.035 0.036 67.84-67.904c5.791-5.789 13.789-9.369 22.624-9.369s16.833 3.58 22.624 9.369l135.808 135.744c5.808 5.794 9.401 13.805 9.401 22.656s-3.593 16.862-9.401 22.655l-0.001 0.001zM288 581.504l-45.248 45.248c-11.116 11.497-17.966 27.179-17.966 44.462 0 35.346 28.654 64 64 64 17.282 0 32.964-6.85 44.48-17.983l-0.018 0.017 45.248-45.248z" />
<glyph unicode="&#xe90e;" glyph-name="cardboard" d="M960 704h-64v64c0 35.346-28.654 64-64 64v0h-640c-35.346 0-64-28.654-64-64v0-64h-64c-35.346 0-64-28.654-64-64v0-512c0-35.346 28.654-64 64-64v0h226.176c46.617 0.408 87.215 25.786 109.114 63.393l0.326 0.607h224.768c22.225-38.214 62.823-63.592 109.382-64h226.234c35.346 0 64 28.654 64 64v0 512c0 35.346-28.654 64-64 64v0zM192 768h640v-64h-640zM430.784 192l52.096 114.56c5.166 11.143 16.257 18.733 29.12 18.733s23.954-7.59 29.038-18.535l0.082-0.197 52.096-114.56zM960 96v32h-226.176c-25.734 0.007-47.918 15.202-58.075 37.109l-0.165 0.395-2.688 5.888c0 0.832-0.704 1.6-1.088 2.368l-72.448 159.040c-15.499 33.429-48.771 56.198-87.36 56.198s-71.861-22.769-87.113-55.605l-0.247-0.592-72.64-159.040c-0.384-0.768-0.768-1.536-1.088-2.368l-2.688-5.888c-10.322-22.302-32.506-37.497-58.239-37.504h-225.985v512h896v-512zM256 576c-70.692 0-128-57.308-128-128s57.308-128 128-128c70.692 0 128 57.308 128 128v0c0 70.692-57.308 128-128 128v0zM256 384c-35.346 0-64 28.654-64 64s28.654 64 64 64c35.346 0 64-28.654 64-64v0c0-35.346-28.654-64-64-64v0zM768 576c-70.692 0-128-57.308-128-128s57.308-128 128-128c70.692 0 128 57.308 128 128v0c0 70.692-57.308 128-128 128v0zM768 384c-35.346 0-64 28.654-64 64s28.654 64 64 64c35.346 0 64-28.654 64-64v0c0-35.346-28.654-64-64-64v0z" />
<glyph unicode="&#xe90f;" glyph-name="chart" d="M512 960c-282.77 0-512-229.23-512-512s229.23-512 512-512c282.77 0 512 229.23 512 512v0c-0.327 282.638-229.362 511.672-511.968 512h-0.032zM958.4 480h-414.4v414.4c221.876-16.586 397.813-192.524 414.31-412.907l0.090-1.493zM512 0c-245.074 3.069-442.562 202.455-442.562 447.967 0 234.245 179.779 426.501 408.887 446.316l1.675 0.117v-446.4c0-17.673 14.327-32 32-32v0h446.4c-17.198-233.108-210.43-415.752-446.375-416h-0.025z" />
<glyph unicode="&#xe910;" glyph-name="chat-bubble" d="M947.2 830.144l-626.368 126.464c-9.291 2.164-19.96 3.405-30.918 3.405-0.673 0-1.345-0.005-2.015-0.014l0.102 0.001c-72.548-0.292-133.717-48.668-153.312-114.896l-0.288-1.136-128-448c-4.017-13.155-6.352-28.28-6.4-43.943v-0.025c0-88.366 71.634-160 160-160v0c0.688-0.022 1.498-0.034 2.31-0.034 3.949 0 7.831 0.292 11.623 0.854l-0.429-0.052 462.656 38.4 69.504-209.152c4.358-12.838 16.304-21.911 30.368-21.911s26.010 9.073 30.301 21.686l0.067 0.225 75.264 226.368 94.528 7.616c49.376 4.355 87.809 45.514 87.809 95.65 0 0.123 0 0.246-0.001 0.369v-0.019 384c0 0.025 0 0.054 0 0.084 0 46.223-32.668 84.816-76.175 93.951l-0.625 0.11zM960 352c-0.167-16.751-13.003-30.453-29.375-31.99l-0.129-0.010-115.2-9.6c-12.953-1.105-23.626-9.778-27.645-21.535l-0.067-0.225-51.584-155.2-47.040 141.76c-4.363 12.818-16.29 21.877-30.335 21.888h-2.689l-487.68-40.32c-0.832 0-7.424-0.384-8.256-0.512 0 0 0 0 0 0-52.929 0-95.854 42.835-96 95.73v0.014c0.028 9.412 1.453 18.482 4.078 27.025l-0.174-0.657 128 448c11.83 40.462 48.554 69.533 92.085 69.632h0.011c0.444 0.009 0.968 0.014 1.493 0.014 6.275 0 12.386-0.704 18.257-2.039l-0.55 0.105 627.2-126.72c14.711-3.082 25.6-15.946 25.6-31.353 0-0.002 0-0.005 0-0.007v0z" />
<glyph unicode="&#xe911;" glyph-name="chat" d="M224 640h384c17.673 0 32 14.327 32 32s-14.327 32-32 32v0h-384c-17.673 0-32-14.327-32-32s14.327-32 32-32v0zM224 512h256c17.673 0 32 14.327 32 32s-14.327 32-32 32v0h-256c-17.673 0-32-14.327-32-32s14.327-32 32-32v0zM832 608c0 194.112-186.624 352-416 352s-416-157.888-416-352c0.892-84.617 34.636-161.184 89.056-217.7l-0.096 0.1-79.616-79.744c-5.808-5.794-9.401-13.805-9.401-22.656 0-17.673 14.327-32 32-32 0.020 0 0.040 0 0.060 0h383.997c229.376 0 416 157.888 416 352zM155.776 414.208c-55.093 47.133-90.231 116.21-91.772 193.528l-0.004 0.264c0 158.784 157.952 288 352 288s352-129.216 352-288-157.952-288-352-288h-306.752l47.744 47.808c5.77 5.787 9.338 13.773 9.338 22.592 0 9.44-4.087 17.925-10.589 23.782l-0.029 0.025zM900.16 561.344c-6.896-5.905-11.239-14.621-11.239-24.351 0-7.947 2.897-15.217 7.691-20.812l-0.036 0.043c38.763-43.529 62.687-101.014 63.423-164.073l0.001-0.151c-1.545-77.582-36.683-146.659-91.419-193.494l-0.357-0.298c-6.53-5.883-10.618-14.368-10.618-23.808 0-8.819 3.568-16.805 9.338-22.593l-0.001 0.001 47.744-47.808h-306.688c-3.485-0.118-7.581-0.185-11.693-0.185-122.477 0-231.004 59.729-298.041 151.648l-0.73 1.050c-5.803 8.795-15.641 14.519-26.816 14.519-17.686 0-32.023-14.337-32.023-32.023 0-6.511 1.943-12.569 5.282-17.624l-0.074 0.12c79.53-110.527 207.806-181.654 352.694-181.654 4.009 0 8.006 0.054 11.989 0.163l-0.587-0.013h384c0.017 0 0.037 0 0.057 0 17.673 0 32 14.327 32 32 0 8.851-3.593 16.862-9.401 22.655l-0.001 0.001-79.616 79.744c54.324 56.416 88.068 132.983 88.959 217.426l0.001 0.174c-0.636 79.116-30.369 151.167-79.008 206.091l0.288-0.331c-5.905 6.896-14.621 11.239-24.351 11.239-7.947 0-15.217-2.897-20.812-7.691l0.043 0.036z" />
<glyph unicode="&#xe912;" glyph-name="christmas-tree" d="M448-64h128c17.673 0 32 14.327 32 32v0 101.888c99.489 12.405 189.31 33.3 275.324 62.445l-9.724-2.861c13.075 4.22 22.366 16.283 22.366 30.515 0 5.638-1.458 10.935-4.018 15.536l0.083-0.163-137.728 251.776c19.968 7.232 39.872 14.784 59.264 23.808 11.004 5.219 18.477 16.238 18.477 29.002 0 6.44-1.903 12.437-5.177 17.457l0.075-0.123-288 448c-6.12 8.37-15.904 13.746-26.944 13.746s-20.824-5.376-26.878-13.652l-0.066-0.094-288-448c-3.199-4.897-5.101-10.893-5.101-17.334 0-12.764 7.473-23.783 18.283-28.919l0.194-0.083c19.2-9.088 39.296-16.576 59.264-23.808l-137.728-251.776c-2.476-4.437-3.934-9.735-3.934-15.373 0-14.233 9.292-26.295 22.14-30.452l0.226-0.063c76.29-26.284 166.111-47.179 258.795-58.883l6.805-0.701v-101.888c0-17.673 14.327-32 32-32v0zM544 0h-64v65.664c10.624-0.384 21.376-1.536 32-1.536s21.376 1.152 32 1.536zM512 868.8l240.768-374.464c-71.259-29.444-154.001-46.54-240.736-46.54s-169.477 17.097-245.040 48.103l4.304-1.563zM332.16 408c53.87-14.969 115.773-23.709 179.671-23.999l0.169-0.001c64.1 0.359 125.99 9.166 184.819 25.361l-4.979-1.169 125.248-228.992c-90.915-32.467-195.794-51.232-305.056-51.232s-214.141 18.765-311.59 53.248l6.534-2.016zM737.28 192c17.673 0 32 14.327 32 32s-14.327 32-32 32v0h-0.64c-17.673 0-32-14.327-32-32v0c0-0.002 0-0.004 0-0.006 0-17.673 14.327-32 32-32 0.225 0 0.45 0.002 0.673 0.007l-0.033-0.001zM609.28 256c17.673 0 32 14.327 32 32s-14.327 32-32 32v0h-0.64c-17.673 0-32-14.327-32-32v0c0-0.002 0-0.004 0-0.006 0-17.673 14.327-32 32-32 0.225 0 0.45 0.002 0.673 0.007l-0.033-0.001zM481.28 256h-0.64c-17.673 0-32-14.327-32-32v0c0-17.673 14.327-32 32-32s32 14.327 32 32c0 17.673-14.327 32-32 32v0zM353.28 320h-0.64c-17.673 0-32-14.327-32-32v0c0-17.673 14.327-32 32-32s32 14.327 32 32c0 17.673-14.327 32-32 32v0zM609.28 576c17.673 0 32 14.327 32 32s-14.327 32-32 32v0h-0.64c-17.673 0-32-14.327-32-32v0c0-0.002 0-0.004 0-0.006 0-17.673 14.327-32 32-32 0.225 0 0.45 0.002 0.673 0.007l-0.033-0.001zM481.28 576h-0.64c-17.673 0-32-14.327-32-32v0c0-17.673 14.327-32 32-32s32 14.327 32 32c0 17.673-14.327 32-32 32v0zM481.28 640c17.673 0 32 14.327 32 32s-14.327 32-32 32v0h-0.64c-17.673 0-32-14.327-32-32v0c0-0.002 0-0.004 0-0.006 0-17.673 14.327-32 32-32 0.225 0 0.45 0.002 0.673 0.007l-0.033-0.001z" />
<glyph unicode="&#xe913;" glyph-name="cloudy" d="M1024 640c-0.631 105.559-86.349 190.887-191.997 190.887-72.82 0-136.171-40.539-168.717-100.28l-0.502-1.007c-43.789 24.046-95.956 38.191-151.427 38.191-130.226 0-242.244-77.961-291.926-189.758l-0.807-2.034c-122.559-1.518-221.328-101.224-221.328-224 0-123.721 100.295-224.016 224.016-224.016 0.945 0 1.889 0.006 2.831 0.018l-0.143-0.001h608c0.013 0 0.029 0 0.044 0 106.039 0 192 85.961 192 192 0 66.501-33.809 125.106-85.176 159.563l-0.692 0.437c52.034 34.898 85.824 93.488 85.824 159.971 0 0.010 0 0.021 0 0.031v-0.002zM960 320c0-70.692-57.308-128-128-128v0h-608c-88.366 0-160 71.634-160 160s71.634 160 160 160v0c1.263 0.085 2.738 0.133 4.224 0.133s2.961-0.048 4.423-0.144l-0.199 0.010c2.285-0.583 4.908-0.918 7.609-0.918 13.897 0 25.726 8.859 30.145 21.238l0.070 0.223c36.013 100.637 130.548 171.345 241.598 171.345 130.36 0 237.962-97.437 253.951-223.455l0.131-1.266v-0.96c0-1.472 0.704-2.816 0.832-4.288 1.686-16.237 15.296-28.789 31.838-28.789 2.117 0 4.186 0.206 6.188 0.598l-0.202-0.033c7.892 1.468 16.973 2.308 26.249 2.308 0.402 0 0.803-0.002 1.204-0.005h-0.061c70.692 0 128-57.308 128-128v0zM832 512c-2.304 0-4.224 0.576-6.4 0.704-15.321 73.145-53.969 135.487-107.662 180.458l-0.498 0.406c20.851 43.583 64.596 73.15 115.247 73.15 70.339 0 127.36-57.021 127.36-127.36s-57.021-127.36-127.36-127.36c-0.242 0-0.483 0.001-0.724 0.002h0.037z" />
<glyph unicode="&#xe914;" glyph-name="coffee-cup" d="M704 960h-384c-35.346 0-64-28.654-64-64v0-64h-64c-35.346 0-64-28.654-64-64v0-64c0-35.346 28.654-64 64-64v0h4.032l91.968-676.288c2.187-15.733 15.55-27.713 31.712-27.713 0.101 0 0.203 0 0.304 0.001h383.984c0.086-0.001 0.187-0.001 0.288-0.001 16.161 0 29.525 11.981 31.692 27.545l0.019 0.168 91.968 676.288h4.032c35.346 0 64 28.654 64 64v0 64c0 35.346-28.654 64-64 64v0h-64v64c0 35.346-28.654 64-64 64v0zM320 896h384v-64h-384zM702.272 192h-380.544l-34.88 256h450.304zM347.968 0l-17.472 128h363.008l-17.472-128zM745.92 512h-467.776l-17.472 128h502.656zM832 704h-640v64h640zM512 224c53.019 0 96 42.981 96 96s-42.981 96-96 96c-53.019 0-96-42.981-96-96v0c0-53.019 42.981-96 96-96v0zM512 352c17.673 0 32-14.327 32-32s-14.327-32-32-32c-17.673 0-32 14.327-32 32v0c0 17.673 14.327 32 32 32v0z" />
<glyph unicode="&#xe915;" glyph-name="coffee-latte" d="M864 512h-96v32c0 17.673-14.327 32-32 32v0h-32c0 70.692-57.308 128-128 128v0c0 70.692-57.308 128-128 128v0h-7.36c-21.12 22.443-44.81 42.084-70.704 58.571l-1.488 0.885c-4.686 2.844-10.351 4.527-16.408 4.527-17.673 0-32-14.327-32-32 0-4.258 0.832-8.321 2.341-12.037l-0.077 0.214c3.381-8.895 6.331-19.512 8.336-30.459l0.176-1.157c-44.51-20.689-74.816-65.019-74.816-116.428 0-0.041 0-0.082 0-0.123v0.006c-70.692 0-128-57.308-128-128v0h-32c-17.673 0-32-14.327-32-32v0-256c0-159.058 128.942-288 288-288v0h128c124.212 0.391 229.852 79.476 269.705 189.996l0.631 2.004h113.664c88.176 0.469 159.53 71.824 160 159.955v0.045c0 88.366-71.634 160-160 160v0zM256 640h32c17.673 0 32 14.327 32 32v0 32c-0.001 0.109-0.001 0.239-0.001 0.368 0 30.716 21.813 56.337 50.793 62.219l0.408 0.069c11.085 2.14 20.002 9.764 23.926 19.878l0.074 0.218c2.112-2.368 4.224-4.8 6.4-7.232 5.911-7.061 14.729-11.52 24.588-11.52 0.018 0 0.037 0 0.055 0h21.757c35.346 0 64-28.654 64-64v0-32c0-17.673 14.327-32 32-32v0h32c35.346 0 64-28.654 64-64v0h-448c0 35.346 28.654 64 64 64v0zM480 64h-128c-123.712 0-224 100.288-224 224v0 224h576v-224c0-123.712-100.288-224-224-224v0zM931.328 284.032c-16.933-17.305-40.526-28.035-66.624-28.035-0.247 0-0.494 0.001-0.741 0.003h-99.226c1.56 9.176 2.727 20.194 3.241 31.382l0.023 0.618v160h96c53.019 0 96-42.981 96-96v0c0.001-0.151 0.001-0.329 0.001-0.507 0-26.48-10.984-50.394-28.645-67.434l-0.028-0.027z" />
<glyph unicode="&#xe916;" glyph-name="coffee-plunger" d="M32 576c-17.673 0-32-14.327-32-32 0-10.433 4.993-19.7 12.72-25.542l0.080-0.058 115.2-86.4v-432c0-35.346 28.654-64 64-64v0h448c35.346 0 64 28.654 64 64v0 128h96c88.366 0 160 71.634 160 160v0 128c0 88.366-71.634 160-160 160v0h-352v64h224c17.673 0 32 14.327 32 32v0c0 88.366-71.634 160-160 160v0h-37.888c3.623 9.499 5.773 20.481 5.888 31.951v0.049c0 53.019-42.981 96-96 96s-96-42.981-96-96v0c0.115-11.519 2.265-22.501 6.105-32.653l-0.217 0.653h-37.888c-88.366 0-160-71.634-160-160v0c0-17.673 14.327-32 32-32v0h224v-64zM384 864c0 17.673 14.327 32 32 32s32-14.327 32-32c0-17.673-14.327-32-32-32v0c-17.673 0-32 14.327-32 32v0zM288 768h256c0.015 0 0.033 0 0.050 0 41.549 0 76.933-26.395 90.298-63.332l0.211-0.668h-437.12c13.577 37.605 48.961 64 90.51 64 0.018 0 0.035 0 0.053 0h-0.003zM896 416v-128c0-53.019-42.981-96-96-96v0h-96v320h96c53.019 0 96-42.981 96-96v0zM640 512v-512h-448v448c0 10.433-4.993 19.7-12.72 25.542l-0.080 0.058-51.2 38.4h256v-320h-96c-17.673 0-32-14.327-32-32s14.327-32 32-32v0h256c17.673 0 32 14.327 32 32s-14.327 32-32 32v0h-96v320z" />
<glyph unicode="&#xe917;" glyph-name="compact-disk" d="M64 0h512c35.346 0 64 28.654 64 64v0 768c0 35.346-28.654 64-64 64v0h-512c-35.346 0-64-28.654-64-64v0-768c0-35.346 28.654-64 64-64v0zM64 832h512v-768h-512zM744.64 817.344c-2.599 0.76-5.584 1.197-8.672 1.197-17.68 0-32.013-14.333-32.013-32.013 0-14.593 9.764-26.905 23.115-30.76l0.226-0.056c135.19-39.439 232.287-162.252 232.287-307.744s-97.096-268.305-230.024-307.177l-2.262-0.567c-13.577-3.911-23.341-16.223-23.341-30.816 0-17.68 14.333-32.013 32.013-32.013 3.088 0 6.073 0.437 8.898 1.253l-0.226-0.056c162.378 47.229 279.036 194.679 279.036 369.376s-116.658 322.147-276.322 368.698l-2.714 0.678zM725.568 387.968c-12.237-4.681-20.768-16.326-20.768-29.964 0-17.673 14.327-32 32-32 3.44 0 6.753 0.543 9.859 1.547l-0.226-0.063c50.281 17.891 85.631 65.073 85.631 120.512s-35.351 102.621-84.74 120.235l-0.891 0.277c-2.879 0.941-6.192 1.484-9.632 1.484-17.673 0-32-14.327-32-32 0-13.638 8.532-25.284 20.549-29.89l0.219-0.074c24.953-8.979 42.474-32.444 42.474-60s-17.521-51.021-42.030-59.86l-0.443-0.14zM357.952 703.424c-0.96 0-1.856 0-2.816 0-0.838 0.214-1.902 0.416-2.984 0.559l-0.152 0.017c-1.441-0.205-2.697-0.473-3.92-0.818l0.208 0.050c-2.108-0.237-4.017-0.642-5.854-1.211l0.222 0.059c-6.146-1.898-11.311-5.47-15.122-10.182l-0.046-0.058c-1.178-1.424-2.26-3.016-3.185-4.707l-0.079-0.157c-0.937-1.715-1.765-3.711-2.377-5.799l-0.055-0.217c-0.409-0.827-0.842-1.863-1.216-2.927l-0.064-0.209c0-1.024 0-1.92 0-2.944-0.185-0.755-0.364-1.733-0.495-2.726l-0.017-0.154v-300.8c-18.654 8.094-40.38 12.802-63.206 12.802-0.279 0-0.558-0.001-0.837-0.002h0.043c-71.808 0-128-42.176-128-96s56.192-96 128-96 128 42.176 128 96v339.84c35.101-11.322 60.663-42.223 63.975-79.521l0.025-0.351c0-17.673 14.327-32 32-32s32 14.327 32 32v0c0 100.096-100.8 145.472-154.048 155.456zM256 256c-39.040 0-64 19.2-64 32s24.96 32 64 32 64-19.2 64-32-24.96-32-64-32z" />
<glyph unicode="&#xe918;" glyph-name="croissant" d="M958.912 614.4c-0.766 4.308-2.428 8.128-4.792 11.41l0.056-0.082c-0.61 1.289-1.207 2.358-1.865 3.385l0.073-0.121c-106.793 124.725-264.416 203.266-440.384 203.266s-333.591-78.541-439.727-202.48l-0.657-0.786c-0.61-0.914-1.227-1.983-1.778-3.090l-0.078-0.174c-3.263-4.867-5.253-10.829-5.376-17.249v-0.031c0.014-2.16 0.247-4.258 0.676-6.283l-0.036 0.203c0.738-4.326 2.38-8.171 4.73-11.478l-0.058 0.086c0.591-1.268 1.167-2.317 1.801-3.325l-0.073 0.125 23.616-28.288-66.624-117.568c-7.822-13.622-12.435-29.95-12.435-47.355 0-26.463 10.664-50.435 27.93-67.852l-0.007 0.007 13.696-13.12c-15.933-36.184-25.206-78.371-25.206-122.723 0-37.58 6.658-73.605 18.858-106.959l-0.692 2.163c4.271-12.818 16.092-21.925 30.062-22.080h0.018c0.004 0 0.008 0 0.012 0 4.087 0 7.998 0.751 11.604 2.123l-0.224-0.075c49.522 22.345 90.607 55.772 121.401 97.29l0.583 0.822c13.176-8.090 29.017-13.107 45.983-13.692l0.161-0.004c23.331 0.017 44.712 8.355 61.339 22.205l-0.155-0.125 56.576 47.232 13.568-16.256c0.973-0.86 2.037-1.681 3.156-2.428l0.108-0.068c1.969-1.981 4.198-3.7 6.632-5.103l0.152-0.081c1.359-0.639 2.977-1.229 4.652-1.679l0.212-0.049c2.205-0.811 4.767-1.4 7.426-1.654l0.126-0.010c0.704 0 1.344-0.448 2.048-0.448 1.696 0.172 3.22 0.443 4.704 0.816l-0.224-0.048c1.705 0.159 3.252 0.43 4.754 0.813l-0.21-0.045c2.831 0.946 5.288 2.16 7.54 3.657l-0.116-0.073c1.125 0.455 2.030 0.884 2.909 1.357l-0.157-0.077c21.168 15.859 47.87 25.394 76.8 25.394s55.632-9.535 77.136-25.634l-0.336 0.241s0.704 0 1.024-0.384c5.036-3.823 11.409-6.124 18.32-6.124 4.988 0 9.696 1.199 13.852 3.324l-0.172-0.080c1.346 0.9 2.515 1.805 3.619 2.782l-0.035-0.030c2.797 1.554 5.199 3.405 7.288 5.56l0.008 0.008 13.568 16.256 56.704-47.36c15.782-13.677 36.519-22.011 59.202-22.011 17.785 0 34.373 5.123 48.37 13.974l-0.372-0.22c31.375-42.342 72.46-75.77 120.066-97.334l1.918-0.778c3.33-1.256 7.18-1.983 11.2-1.984v0c0.005 0 0.012 0 0.018 0 14.079 0 26.035 9.093 30.315 21.726l0.066 0.226c11.433 31.096 18.046 67.006 18.046 104.46 0 44.53-9.348 86.877-26.189 125.185l0.783-1.997 13.376 13.376c17.225 17.415 27.867 41.372 27.867 67.815 0 17.416-4.616 33.754-12.692 47.857l0.249-0.472-66.56 117.12 23.616 28.288c0.563 0.886 1.139 1.935 1.652 3.020l0.076 0.18c3.308 4.775 5.284 10.691 5.284 17.068 0 2.251-0.246 4.445-0.713 6.556l0.037-0.201zM101.312 143.296c-3.209 14.725-5.046 31.64-5.046 48.984 0 25.583 3.999 50.232 11.405 73.357l-0.47-1.701 58.432-58.432c-18.515-23.981-39.752-44.608-63.56-61.913l-0.888-0.615zM280.512 222.080c-5.562-4.791-12.856-7.709-20.831-7.709-8.963 0-17.066 3.685-22.875 9.623l-147.846 147.846c-5.73 5.781-9.271 13.739-9.271 22.525 0 5.84 1.564 11.315 4.297 16.028l-0.082-0.153 54.656 96 198.4-237.76zM422.784 266.176l-15.808 19.2-0.32 0.576-0.512 0.448-267.328 320.192c93.627 99.518 226.184 161.495 373.216 161.495s279.589-61.977 372.97-161.231l0.246-0.263-283.968-340.928c-25.967 13.865-56.795 22.009-89.525 22.009-32.535 0-63.191-8.047-90.086-22.259l1.051 0.506zM922.88 143.296c-24.637 17.838-45.829 38.359-63.797 61.508l-0.523 0.7 58.432 58.432c6.937-21.425 10.936-46.076 10.936-71.662 0-17.457-1.862-34.479-5.398-50.879l0.286 1.581zM939.904 410.88c2.665-4.569 4.239-10.059 4.239-15.915 0-8.766-3.525-16.708-9.234-22.488l0.003 0.003-147.712-148.48c-5.83-6.048-14.002-9.804-23.051-9.804-7.721 0-14.804 2.735-20.332 7.288l0.055-0.044-56.576 47.232 198.4 237.76z" />
<glyph unicode="&#xe919;" glyph-name="devil" d="M320 480c0.11 0 0.24-0.001 0.371-0.001 35.228 0 67.107 14.339 90.119 37.498l0.007 0.007c5.789 5.791 9.369 13.789 9.369 22.624s-3.58 16.833-9.369 22.624l-135.744 135.744c-5.791 5.789-13.789 9.369-22.624 9.369s-16.833-3.58-22.624-9.369v0c-23.155-23.162-37.477-55.157-37.477-90.496 0-70.683 57.292-127.984 127.971-128h0.002zM258.176 624.576l78.4-78.4c-4.894-1.324-10.514-2.085-16.311-2.085-17.739 0-33.815 7.125-45.521 18.669l0.007-0.007c-11.588 11.583-18.755 27.587-18.755 45.265 0 5.889 0.795 11.592 2.285 17.008l-0.105-0.449zM704 480c70.681 0.016 127.973 57.317 127.973 128 0 35.339-14.321 67.334-37.477 90.496v0c-5.791 5.789-13.789 9.369-22.624 9.369s-16.833-3.58-22.624-9.369l-135.744-135.744c-5.789-5.791-9.369-13.789-9.369-22.624s3.58-16.833 9.369-22.624v0c23.019-23.166 54.897-37.505 90.125-37.505 0.13 0 0.261 0 0.391 0.001h-0.020zM765.824 624.576c1.389-4.975 2.187-10.688 2.187-16.587 0-35.346-28.654-64-64-64-5.899 0-11.612 0.798-17.036 2.292l0.449-0.106zM850.56 384h-677.12c-17.669-0.005-31.99-14.33-31.99-32 0-3.099 0.441-6.096 1.263-8.93l-0.056 0.226c47.229-162.378 194.679-279.036 369.376-279.036s322.147 116.658 368.698 276.322l0.678 2.714c0.766 2.608 1.207 5.605 1.207 8.704 0 17.673-14.327 32-32 32-0.019 0-0.038 0-0.057 0h0.003zM512 128c-130.333 0.296-242.396 78.215-292.434 189.965l-0.814 2.035h586.496c-50.852-113.785-162.914-191.704-293.209-192h-0.039zM965.248 943.040c-5.592 10.588-16.531 17.681-29.127 17.681-2.423 0-4.785-0.262-7.058-0.761l0.217 0.040c-13.938-3.258-24.166-15.567-24.192-30.269v-0.003c0-0.32-4.992-34.432-66.56-88.896-87.51 74.139-201.691 119.216-326.4 119.216s-238.89-45.077-327.138-119.825l0.738 0.61c-60.864 53.44-66.56 87.168-66.688 87.168 0 0.024 0 0.052 0 0.081 0 17.673-14.327 32-32 32-12.2 0-22.806-6.827-28.204-16.87l-0.084-0.171c-16.586-36.484-26.253-79.121-26.253-124.016 0-47.331 10.745-92.153 29.928-132.16l-0.795 1.84c-38.085-69.817-60.48-152.92-60.48-241.255 0-282.452 228.972-511.424 511.424-511.424s511.424 228.972 511.424 511.424c0 0.194 0 0.387 0 0.581v-0.030c-0.335 88.278-23.128 171.159-62.957 243.323l1.325-2.619c18.388 38.167 29.133 82.988 29.133 130.32 0 44.895-9.667 87.532-27.032 125.943l0.779-1.927zM512 0c-0.261-0.001-0.57-0.001-0.879-0.001-246.929 0-447.104 200.175-447.104 447.104 0 82.57 22.383 159.912 61.412 226.29l-1.14-2.097c0.326 0.758 0.674 1.736 0.971 2.736l0.053 0.208c0.878 1.828 1.627 3.964 2.136 6.191l0.040 0.209c0.327 1.673 0.514 3.597 0.514 5.565 0 0.114-0.001 0.227-0.002 0.34v-0.017c0.008 0.261 0.012 0.568 0.012 0.876 0 4.11-0.804 8.032-2.263 11.618l0.074-0.206c-0.268 1.249-0.555 2.278-0.894 3.283l0.062-0.211c-18.368 34.417-29.157 75.274-29.157 118.651 0 6.849 0.269 13.635 0.797 20.348l-0.056-0.887c20.717-24.59 43.371-46.351 68.112-65.551l1.008-0.753c0.96-0.594 2.094-1.193 3.269-1.717l0.187-0.075c1.692-1.124 3.632-2.135 5.677-2.935l0.211-0.073c1.67-0.587 3.638-1.058 5.669-1.327l0.155-0.017c1.53-0.325 3.288-0.511 5.090-0.511 2.472 0 4.861 0.35 7.123 1.004l-0.181-0.045c2.116 0.525 3.949 1.183 5.692 1.999l-0.188-0.079c2.074 1.022 3.858 2.151 5.508 3.443l-0.068-0.051c1.312 0.704 2.421 1.404 3.478 2.172l-0.086-0.060c79.376 74.686 186.585 120.579 304.512 120.579s225.136-45.892 304.741-120.792l-0.229 0.213c0.992-0.733 2.122-1.454 3.3-2.098l0.156-0.078c1.455-1.152 3.090-2.215 4.821-3.119l0.171-0.081c1.735-0.781 3.769-1.444 5.883-1.886l0.197-0.034c1.542-0.458 3.368-0.819 5.244-1.013l0.132-0.011c0.64 0 1.28-0.384 1.92-0.384 1.565 0.221 2.929 0.512 4.257 0.886l-0.225-0.054c2.366 0.22 4.54 0.673 6.617 1.34l-0.217-0.060c2.162 0.849 4.016 1.817 5.75 2.953l-0.118-0.073c1.502 0.647 2.763 1.31 3.967 2.057l-0.127-0.073c25.696 19.954 48.308 41.714 68.44 65.631l0.552 0.673c0.472-5.826 0.741-12.612 0.741-19.461 0-43.377-10.788-84.234-29.828-120.035l0.671 1.383c-0.28-0.8-0.567-1.829-0.797-2.879l-0.035-0.193c-1.133-3.082-1.789-6.64-1.789-10.352 0-0.681 0.022-1.357 0.066-2.027l-0.005 0.091c0.125-4.46 1.174-8.645 2.96-12.412l-0.080 0.188c0.355-1.217 0.704-2.194 1.099-3.148l-0.075 0.204c37.912-64.296 60.309-141.661 60.309-224.257 0-246.929-200.175-447.104-447.104-447.104-0.39 0-0.78 0-1.169 0.001h0.061z" />
<glyph unicode="&#xe91a;" glyph-name="diagram" d="M512 960c-280.022-3.588-505.642-231.426-505.642-511.961 0-267.871 205.711-487.696 467.775-510.117l1.899-0.131c10.777-1.159 23.279-1.82 35.936-1.82s25.159 0.661 37.474 1.951l-1.538-0.131c263.967 22.547 469.682 242.374 469.682 510.248 0 280.515-225.588 508.34-505.245 511.956l-0.342 0.003zM384 128c0 70.692 57.308 128 128 128s128-57.308 128-128c0-70.692-57.308-128-128-128v0c-70.692 0-128 57.308-128 128v0zM692.672 65.6c6.931 18.532 11.061 39.943 11.327 62.284l0.001 0.116c0 106.039-85.961 192-192 192s-192-85.961-192-192v0c0.268-22.457 4.398-43.868 11.754-63.713l-0.426 1.313c-65.667 53.223-107.296 133.877-107.296 224.254 0 159.058 128.942 288 288 288s288-128.942 288-288c0-90.377-41.629-171.031-106.759-223.833l-0.537-0.422zM825.28 128.384c24.402 46.651 38.719 101.902 38.719 160.496 0 194.404-157.596 352-352 352s-352-157.596-352-352c0-0.309 0-0.619 0.001-0.928v0.048c0-0.13 0-0.285 0-0.439 0-58.134 14.199-112.952 39.317-161.176l-0.917 1.935c-83.142 81.4-134.688 194.789-134.688 320.218 0 247.424 200.576 448 448 448s448-200.576 448-448c0-125.429-51.546-238.819-134.61-320.142l-0.078-0.076z" />
<glyph unicode="&#xe91b;" glyph-name="discount" d="M960 960h-576c-35.346 0-64-28.654-64-64v0-96c0-17.673 14.327-32 32-32s32 14.327 32 32v0 96h576v-768h-160c-17.673 0-32-14.327-32-32s14.327-32 32-32v0h160c35.346 0 64 28.654 64 64v0 768c0 35.346-28.654 64-64 64v0zM832 512h64v-64h-64v64zM832 320h64v-64h-64v64zM320 384c53.019 0 96 42.981 96 96s-42.981 96-96 96c-53.019 0-96-42.981-96-96v0c0-53.019 42.981-96 96-96v0zM320 512c17.673 0 32-14.327 32-32s-14.327-32-32-32c-17.673 0-32 14.327-32 32v0c0 17.673 14.327 32 32 32v0zM448 256c-53.019 0-96-42.981-96-96s42.981-96 96-96c53.019 0 96 42.981 96 96v0c0 53.019-42.981 96-96 96v0zM448 128c-17.673 0-32 14.327-32 32s14.327 32 32 32c17.673 0 32-14.327 32-32v0c0-17.673-14.327-32-32-32v0zM236.032 134.976c5.406-4.317 12.34-6.928 19.884-6.928 10.041 0 19.002 4.625 24.869 11.86l0.047 0.060 256 320c4.372 5.427 7.017 12.404 7.017 20 0 17.678-14.331 32.009-32.009 32.009-10.083 0-19.077-4.662-24.944-11.948l-0.048-0.062-256-320c-4.329-5.41-6.947-12.353-6.947-19.908 0-10.136 4.712-19.171 12.066-25.034l0.065-0.050zM0 320c0-0.083 0-0.182 0-0.281 0-212.077 171.923-384 384-384s384 171.923 384 384c0 133.181-67.8 250.527-170.767 319.404l-1.393 0.877h268.16c17.673 0 32 14.327 32 32v0 128c0 17.673-14.327 32-32 32v0h-384c-17.673 0-32-14.327-32-32v0-101.76c-19.918 3.685-42.836 5.792-66.247 5.792-210.84 0-381.76-170.92-381.76-381.76 0-0.799 0.002-1.597 0.007-2.395l-0.001 0.123zM512 768h320v-64h-320zM384 640c176.731 0 320-143.269 320-320s-143.269-320-320-320c-176.731 0-320 143.269-320 320v0c0.218 176.643 143.357 319.781 319.979 320h0.021z" />
<glyph unicode="&#xe91c;" glyph-name="document" d="M886.592 694.656l-256 256c-5.786 5.772-13.772 9.342-22.592 9.344h-416c-35.346 0-64-28.654-64-64v0-896c0-35.346 28.654-64 64-64v0h640c35.346 0 64 28.654 64 64v0 672c-0.002 8.852-3.598 16.863-9.407 22.655l-0.001 0.001zM640 850.752l146.752-146.752h-146.752zM453.44 896c-3.447-9.488-5.44-20.44-5.44-31.858 0-0.050 0-0.1 0-0.15v0.008-242.752l-41.344 41.344c-5.791 5.789-13.789 9.369-22.624 9.369s-16.833-3.58-22.624-9.369v0l-41.408-41.344v242.752c0 17.673 14.327 32 32 32v0zM192 0v896h69.888c-3.623-9.499-5.773-20.481-5.888-31.951v-320.049c0-0.017 0-0.037 0-0.057 0-17.673 14.327-32 32-32 8.851 0 16.862 3.593 22.655 9.401l73.345 73.409 73.344-73.408c5.788-5.774 13.776-9.344 22.599-9.344 0.020 0 0.040 0 0.060 0h-0.003c4.411 0.002 8.612 0.896 12.434 2.511l-0.21-0.079c11.705 4.931 19.774 16.307 19.776 29.568v0 320c0 17.673 14.327 32 32 32v0h32v-192c0-35.346 28.654-64 64-64v0h192v-640zM736 384h-448c-17.673 0-32-14.327-32-32s14.327-32 32-32v0h448c17.673 0 32 14.327 32 32s-14.327 32-32 32v0zM544 256h-256c-17.673 0-32-14.327-32-32s14.327-32 32-32v0h256c17.673 0 32 14.327 32 32s-14.327 32-32 32v0z" />
<glyph unicode="&#xe91d;" glyph-name="dress" d="M69.184-49.408c5.786-8.827 15.628-14.579 26.814-14.592h768.002c17.638 0.046 31.92 14.355 31.92 32 0 4.63-0.983 9.030-2.752 13.004l0.081-0.204-250.944 564.8 124.096 372.288c1.040 3.018 1.64 6.495 1.64 10.112 0 17.673-14.327 32-32 32-0.014 0-0.028 0-0.042 0h-511.998c-0.012 0-0.026 0-0.040 0-17.673 0-32-14.327-32-32 0-3.617 0.6-7.094 1.706-10.337l-0.067 0.225 124.096-372.288-250.944-564.8c-1.7-3.781-2.69-8.196-2.69-12.842 0-6.454 1.911-12.462 5.197-17.488l-0.075 0.122zM570.112 896c-13.378-37.597-48.658-64.030-90.112-64.030s-76.734 26.433-89.905 63.364l-0.207 0.667zM268.352 896h54.848c15.344-73.633 79.704-128.16 156.8-128.16s141.456 54.527 156.618 127.12l0.182 1.040h54.848l-106.752-320h-209.792zM372.8 512h214.4l227.584-512h-669.504z" />
<glyph unicode="&#xe91e;" glyph-name="drone" d="M992 960h-256c-17.673 0-32-14.327-32-32s14.327-32 32-32v0h96v-64h-32c-17.673 0-32-14.327-32-32v0-64c0.115-11.519 2.265-22.501 6.105-32.653l-0.217 0.653h-523.776c3.623 9.499 5.773 20.481 5.888 31.951v64.049c0 17.673-14.327 32-32 32v0h-32v64h96c17.673 0 32 14.327 32 32s-14.327 32-32 32v0h-256c-17.673 0-32-14.327-32-32s14.327-32 32-32v0h96v-64h-32c-17.673 0-32-14.327-32-32v0-64c0-53.019 42.981-96 96-96v0h102.976l32.512-129.92c-98.483-9.923-177.549-82.348-197.375-176.588l-0.257-1.46-33.216-165.632c-0.401-1.9-0.63-4.082-0.63-6.319 0-15.45 10.949-28.343 25.511-31.342l0.207-0.036c1.899-0.407 4.081-0.64 6.317-0.64 0.029 0 0.058 0 0.088 0h-0.005c15.384 0.029 28.218 10.908 31.259 25.392l0.037 0.208 33.28 165.824c15.063 72.067 77.046 125.776 151.957 127.994l0.235 0.006c13.389-37.087 48.152-63.178 89.050-63.488h14.054v-90.688c-57.795-33.815-96-95.584-96-166.277 0-106.039 85.961-192 192-192s192 85.961 192 192c0 70.692-38.205 132.462-95.094 165.786l-0.906 0.491v90.688h14.016c40.992 0.302 75.797 26.456 88.943 62.952l0.209 0.664c75.146-2.224 137.129-55.933 152.010-126.959l0.182-1.041 33.28-165.76c3.078-14.692 15.912-25.571 31.293-25.6h0.003c0.025 0 0.054 0 0.083 0 2.236 0 4.418 0.233 6.522 0.676l-0.205-0.036c14.769 3.035 25.718 15.927 25.718 31.377 0 2.236-0.229 4.419-0.666 6.526l0.036-0.207-33.28 165.696c-20.181 95.592-99.216 167.9-196.691 177.715l-0.941 0.077 32.512 129.92h102.976c53.019 0 96 42.981 96 96v0 64c0 17.673-14.327 32-32 32v0h-32v64h96c17.673 0 32 14.327 32 32s-14.327 32-32 32v0zM128 768h64v-32c0-17.673-14.327-32-32-32s-32 14.327-32 32v0zM480 96c0 17.673 14.327 32 32 32s32-14.327 32-32c0-17.673-14.327-32-32-32v0c-17.673 0-32 14.327-32 32v0zM531.2 1.984c44.132 9.245 76.8 47.838 76.8 94.060 0 53.019-42.981 96-96 96s-96-42.981-96-96c0-46.223 32.668-84.816 76.175-93.951l0.625-0.11c-61.952 9.661-108.8 62.636-108.8 126.552 0 70.692 57.308 128 128 128s128-57.308 128-128c0-63.916-46.848-116.891-108.079-126.459l-0.721-0.093zM544 316.8c-9.529 1.866-20.569 3.022-31.848 3.198l-0.152 0.002c-11.447-0.201-22.483-1.38-33.199-3.458l1.199 0.194v67.264h64zM652.8 472.256c-3.566-13.955-15.969-24.129-30.77-24.256h-220.046c-14.815 0.127-27.218 10.301-30.736 24.034l-0.048 0.222-42.176 167.744h366.016zM896 736c0-17.673-14.327-32-32-32s-32 14.327-32 32v0 32h64z" />
<glyph unicode="&#xe91f;" glyph-name="egg" d="M1024 448c0 282.77-229.23 512-512 512s-512-229.23-512-512c0-282.77 229.23-512 512-512v0c0.238-0.001 0.521-0.002 0.803-0.002 89.576 0 163.233 68.158 171.939 155.441l0.058 0.721 7.744 77.504c5.491 51.756 46.228 92.493 97.504 97.943l0.48 0.041 77.312 7.552c88.004 8.764 156.162 82.421 156.162 171.997 0 0.282-0.001 0.564-0.002 0.846v-0.043zM783.936 331.328c-82.058-8.6-146.664-73.206-155.2-154.511l-0.064-0.753-7.872-77.504c-5.592-55.554-52.106-98.56-108.666-98.56-0.047 0-0.094 0-0.141 0h0.007c-0.095 0-0.209 0-0.322 0-138.74 0-262.712 63.23-344.672 162.445l-0.606 0.755c-63.723 77.249-102.369 177.246-102.369 286.27 0 31.393 3.204 62.037 9.303 91.624l-0.503-2.918c36.18 176.256 172.736 312.812 346.118 348.498l2.874 0.494c26.733 5.548 57.482 8.76 88.969 8.832h0.055c0.437 0.002 0.955 0.002 1.472 0.002 247.247 0 447.68-200.433 447.68-447.68 0-0.113 0-0.227 0-0.34v0.018c0-0.040 0-0.087 0-0.134 0-56.559-43.006-103.074-98.101-108.628l-0.459-0.037zM288 576c-88.366 0-160-71.634-160-160s71.634-160 160-160c88.366 0 160 71.634 160 160v0c0 88.366-71.634 160-160 160v0zM288 320c-53.019 0-96 42.981-96 96s42.981 96 96 96c53.019 0 96-42.981 96-96v0c0-53.019-42.981-96-96-96v0zM672 768c-88.366 0-160-71.634-160-160s71.634-160 160-160c88.366 0 160 71.634 160 160v0c0 88.366-71.634 160-160 160v0zM672 512c-53.019 0-96 42.981-96 96s42.981 96 96 96c53.019 0 96-42.981 96-96v0c0-53.019-42.981-96-96-96v0zM288 480c-35.346 0-64-28.654-64-64v0c0-17.673 14.327-32 32-32s32 14.327 32 32v0c17.673 0 32 14.327 32 32s-14.327 32-32 32v0zM672 672c-35.346 0-64-28.654-64-64v0c0-17.673 14.327-32 32-32s32 14.327 32 32v0c17.673 0 32 14.327 32 32s-14.327 32-32 32v0z" />
<glyph unicode="&#xe920;" glyph-name="email-document" d="M896 710.4v185.6c0 35.346-28.654 64-64 64v0h-640c-35.346 0-64-28.654-64-64v0-185.6l-113.728-75.712c-8.654-5.819-14.272-15.574-14.272-26.641 0-0.017 0-0.033 0-0.050v0.003-608c0-1.216 0.64-2.24 0.704-3.456 0.222-2.367 0.674-4.541 1.341-6.618l-0.061 0.218c4.569-30.606 30.534-53.856 61.986-54.144h896.030c31.482 0.288 57.447 23.538 61.973 53.797l0.043 0.347c0.606 1.859 1.058 4.033 1.271 6.276l0.009 0.124c0 1.216 0.704 2.24 0.704 3.456v608c0 0.014 0 0.031 0 0.047 0 11.067-5.618 20.822-14.158 26.568l-0.114 0.072zM64 512.896l306.688-224.896-306.688-224.832zM512 312.32l425.856-312.32h-851.712zM653.312 288.128l306.688 224.768v-449.728zM959.040 591.552l-63.040-46.208v88.256zM832 896v-397.568l-232.832-170.688-67.968 49.856c-5.232 3.879-11.816 6.21-18.944 6.21s-13.712-2.331-19.030-6.271l0.086 0.061-68.224-50.048-233.088 170.88v397.568zM128 545.344l-63.040 46.208 63.040 42.048zM288 768h448c17.673 0 32 14.327 32 32s-14.327 32-32 32v0h-448c-17.673 0-32-14.327-32-32s14.327-32 32-32v0zM288 640h448c17.673 0 32 14.327 32 32s-14.327 32-32 32v0h-448c-17.673 0-32-14.327-32-32s14.327-32 32-32v0zM288 512h256c17.673 0 32 14.327 32 32s-14.327 32-32 32v0h-256c-17.673 0-32-14.327-32-32s14.327-32 32-32v0z" />
<glyph unicode="&#xe921;" glyph-name="email-stack" d="M1021.952 842.048c-4.651 30.503-30.553 53.647-61.92 53.952h-704.032c-31.399-0.305-57.301-23.449-61.908-53.6l-0.044-0.352c-0.606-1.859-1.058-4.033-1.271-6.276l-0.009-0.124c-0.128-1.28-0.768-2.368-0.768-3.648v-160c0-17.673 14.327-32 32-32s32 14.327 32 32v0 96l161.92-121.6c5.281-3.996 11.96-6.4 19.2-6.4 17.673 0 32 14.327 32 32 0 10.433-4.993 19.7-12.72 25.542l-0.080 0.058-179.008 134.4h661.44l-179.712-135.040c-7.807-5.9-12.8-15.167-12.8-25.6 0-17.673 14.327-32 32-32 7.24 0 13.919 2.404 19.28 6.458l-0.080-0.058 162.56 122.24v-384h-32c-17.673 0-32-14.327-32-32s14.327-32 32-32v0h32c35.346 0 64 28.654 64 64v0 448c0 1.28-0.64 2.368-0.768 3.648-0.222 2.367-0.674 4.541-1.341 6.619l0.061-0.219zM2.048 53.888c4.679-30.475 30.572-53.588 61.921-53.888h704.031c31.38 0.3 57.273 23.413 61.907 53.535l0.045 0.353c0.608 1.86 1.060 4.034 1.271 6.278l0.009 0.122c0 1.28 0.704 2.304 0.704 3.648v448.064c0 1.28-0.64 2.304-0.704 3.584-0.221 2.367-0.673 4.54-1.34 6.618l0.060-0.218c-4.648 30.517-30.545 53.678-61.917 54.016h-704.035c-31.407-0.338-57.304-23.499-61.908-53.664l-0.044-0.352c-0.607-1.86-1.059-4.033-1.271-6.277l-0.009-0.123c-0.128-1.28-0.768-2.304-0.768-3.584v-448c0-1.28 0.64-2.368 0.704-3.648 0.238-2.394 0.712-4.587 1.406-6.681l-0.062 0.217zM396.8 198.4c5.281-3.996 11.96-6.4 19.2-6.4s13.919 2.404 19.28 6.458l-0.080-0.058 66.944 50.176 244.672-184.576h-661.632l244.736 184.576zM768 128l-212.544 160.576 212.544 159.424zM416 264l-330.688 248h661.376zM276.544 288.576l-212.544-160.576v320zM768 48v0 0z" />
<glyph unicode="&#xe922;" glyph-name="email" d="M1022.016 713.856c-4.569 30.606-30.534 53.856-61.986 54.144h-896.030c-31.482-0.288-57.447-23.538-61.973-53.797l-0.043-0.347c-0.606-1.859-1.058-4.033-1.271-6.276l-0.009-0.124c-0.064-1.216-0.704-2.24-0.704-3.456v-576c0-1.216 0.64-2.304 0.704-3.52 0.221-2.367 0.673-4.54 1.34-6.618l-0.060 0.218c4.623-30.566 30.563-53.769 61.984-54.080h896.032c31.49 0.321 57.45 23.588 61.973 53.861l0.043 0.347c0.607 1.86 1.059 4.033 1.271 6.277l0.009 0.123c0 1.216 0.704 2.24 0.704 3.52v575.872c0 1.216-0.64 2.24-0.704 3.456-0.222 2.367-0.674 4.541-1.341 6.618l0.061-0.218zM64 640.832l306.688-224.832-306.688-224.896zM582.4 443.52v0l-70.4-51.84-70.4 51.776-355.456 260.544h851.712zM424.832 376.256l67.968-49.856c5.232-3.879 11.816-6.21 18.944-6.21s13.712 2.331 19.030 6.271l-0.086-0.061 68.224 50.048 338.944-248.448h-851.712zM653.312 415.936l306.688 224.896v-449.728zM960 111.808v0 0z" />
<glyph unicode="&#xe923;" glyph-name="facebook" d="M896 960h-768c-70.692 0-128-57.308-128-128v0-768c0-70.692 57.308-128 128-128v0h352c17.673 0 32 14.327 32 32v0 352c0 17.673-14.327 32-32 32v0h-96v96h96c17.673 0 32 14.327 32 32v0 128c0 88.366 71.634 160 160 160v0h96v-96h-39.872c-4.121 0.64-8.874 1.006-13.713 1.006-21.707 0-41.695-7.362-57.603-19.725l0.212 0.159c-10.58-11.001-17.096-25.977-17.096-42.475 0-1.043 0.026-2.080 0.078-3.11l-0.006 0.145v-128c0-17.673 14.327-32 32-32v0h112.768l-38.4-96h-74.368c-17.673 0-32-14.327-32-32v0-352c0-17.673 14.327-32 32-32v0h224c70.692 0 128 57.308 128 128v0 768c0 70.692-57.308 128-128 128v0zM960 64c0-35.346-28.654-64-64-64v0h-192v288h64c13.382 0.003 24.843 8.22 29.619 19.883l0.077 0.213 64 160c1.453 3.524 2.297 7.616 2.297 11.904 0 17.671-14.323 31.996-31.992 32h-128v95.424c6.4 0.704 16.32 0.576 23.36 0.64h72.64c0 0 0 0 0 0 17.651 0 31.964 14.29 32 31.933v160.003c0 17.673-14.327 32-32 32v0h-128c-123.712 0-224-100.288-224-224v0-96h-96c-17.673 0-32-14.327-32-32v0-160c0-17.673 14.327-32 32-32v0h96v-288h-320c-35.346 0-64 28.654-64 64v0 768c0 35.346 28.654 64 64 64v0h768c35.346 0 64-28.654 64-64v0z" />
<glyph unicode="&#xe924;" glyph-name="fast-food" d="M66.752 69.056c13.314-75.867 78.595-132.819 157.223-133.056h320.025c78.653 0.237 143.934 57.189 157.108 132.095l0.14 0.961c38.976 12.569 66.677 48.522 66.677 90.944s-27.701 78.375-66.002 90.755l-0.675 0.189c-13.314 75.867-78.595 132.819-157.223 133.056h-320.025c-78.653-0.237-143.934-57.189-157.108-132.095l-0.14-0.961c-38.976-12.569-66.677-48.522-66.677-90.944s27.701-78.375 66.002-90.755l0.675-0.189zM544 0h-320c-41.389 0.177-76.58 26.519-89.901 63.331l-0.211 0.669h500.224c-13.532-37.481-48.723-63.823-90.090-64h-0.022zM224 320h320c41.389-0.177 76.58-26.519 89.901-63.331l0.211-0.669h-500.224c13.532 37.481 48.723 63.823 90.090 64h0.022zM96 192h576c17.673 0 32-14.327 32-32s-14.327-32-32-32v0h-576c-17.673 0-32 14.327-32 32s14.327 32 32 32v0zM992 896h-192c-15.813-0.008-28.944-11.484-31.525-26.562l-0.027-0.19-27.584-165.248h-196.864c-0.039 0-0.084 0-0.13 0-17.673 0-32-14.327-32-32 0-1.014 0.047-2.017 0.139-3.007l-0.010 0.127 17.92-196.032c2.145-16.46 16.080-29.041 32.953-29.041 0.633 0 1.262 0.018 1.886 0.053l-0.087-0.004c16.391 1.524 29.122 15.21 29.122 31.87 0 1.015-0.047 2.018-0.14 3.009l0.010-0.127-14.592 161.152h377.6l-58.176-640h-130.496c-17.673 0-32-14.327-32-32s14.327-32 32-32v0h160c0.039 0 0.084 0 0.13 0 16.659 0 30.345 12.73 31.861 28.993l0.010 0.127 64 704c0.083 0.863 0.13 1.866 0.13 2.88 0 17.673-14.327 32-32 32-0.046 0-0.091 0-0.137 0h-186.233l21.376 128h164.864c17.673 0 32 14.327 32 32s-14.327 32-32 32v0z" />
<glyph unicode="&#xe925;" glyph-name="fidget-spinner" d="M512 288c70.692 0 128 57.308 128 128s-57.308 128-128 128c-70.692 0-128-57.308-128-128v0c0-70.692 57.308-128 128-128v0zM512 480c35.346 0 64-28.654 64-64s-28.654-64-64-64c-35.346 0-64 28.654-64 64v0c0 35.346 28.654 64 64 64v0zM512 672c53.019 0 96 42.981 96 96s-42.981 96-96 96c-53.019 0-96-42.981-96-96v0c0-53.019 42.981-96 96-96v0zM512 800c17.673 0 32-14.327 32-32s-14.327-32-32-32c-17.673 0-32 14.327-32 32v0c0 17.673 14.327 32 32 32v0zM159.104 323.136c-28.929-16.9-48.056-47.802-48.056-83.171 0-44.232 29.914-81.477 70.615-92.608l0.673-0.157c7.499-2.089 16.115-3.302 25.009-3.328h0.015c0.060 0 0.131 0 0.201 0 17.555 0 34 4.753 48.118 13.043l-0.447-0.243c28.928 16.913 48.053 47.823 48.053 83.2 0 53.049-43.005 96.053-96.053 96.053-17.672 0-34.23-4.772-48.454-13.099l0.454 0.245zM191.104 267.776c4.549 2.634 10.007 4.189 15.829 4.189 17.673 0 32-14.327 32-32s-14.327-32-32-32c-11.796 0-22.102 6.383-27.651 15.883l-0.082 0.152c-2.673 4.575-4.251 10.072-4.251 15.938 0 11.871 6.464 22.232 16.064 27.756l0.155 0.082zM161.536 426.624c-1.536 0-3.072-0.576-4.544-0.96-17.418-4.912-32.611-11.46-46.691-19.704l0.931 0.504c-57.642-34.165-95.682-96.054-95.682-166.829 0-35.149 9.382-68.106 25.779-96.504l-0.497 0.933c33.241-58.38 95.049-97.109 165.904-97.109 52.305 0 99.68 21.105 134.075 55.264l-0.011-0.011c0.844 0.659 1.596 1.33 2.301 2.045l0.003 0.003c41.647 46.619 101.94 75.827 169.056 75.827s127.409-29.208 168.863-75.607l0.193-0.22c0.693-0.722 1.424-1.392 2.195-2.013l0.045-0.035c34.492-33.349 81.54-53.9 133.388-53.9 106.039 0 192 85.961 192 192 0 70.697-38.21 132.47-95.105 165.793l-0.906 0.491c-13.128 7.722-28.298 14.268-44.296 18.856l-1.4 0.344c-1.132 0.308-2.562 0.599-4.018 0.808l-0.206 0.024c-101.899 23.347-176.764 113.236-176.764 220.61 0 25.407 4.192 49.835 11.921 72.631l-0.469-1.593c0.28 1.037 0.548 2.359 0.744 3.704l0.024 0.2c3.578 13.554 5.633 29.116 5.633 45.157 0 0.235 0 0.469-0.001 0.704v-0.036c0 106.039-85.961 192-192 192s-192-85.961-192-192v0c-0.006-0.509-0.009-1.111-0.009-1.714 0-14.509 1.989-28.553 5.71-41.875l-0.261 1.093c0.101-2.614 0.492-5.092 1.142-7.462l-0.054 0.23c7.287-21.235 11.493-45.702 11.493-71.152 0-107.262-74.729-197.070-174.963-220.201l-1.522-0.296zM389.888 728.704c-0.512 2.624-1.024 5.184-1.408 6.4-2.845 9.688-4.481 20.817-4.481 32.328 0 0.2 0 0.399 0.001 0.598v-0.031c0 70.692 57.308 128 128 128s128-57.308 128-128v0c0.001-0.168 0.001-0.366 0.001-0.564 0-10.836-1.449-21.333-4.163-31.309l0.193 0.834c-0.668-2.072-1.333-4.72-1.848-7.42l-0.072-0.452v-0.768c-7.507-24.526-11.83-52.716-11.83-81.916 0-138.043 96.606-253.523 225.898-282.52l1.931-0.364 3.456-0.704c10.357-3.207 19.323-7.183 27.706-12.052l-0.634 0.34c38.722-22.58 64.33-63.915 64.33-111.232 0-70.875-57.455-128.33-128.33-128.33-23.558 0-45.633 6.348-64.609 17.426l0.609-0.328c-9.895 5.959-18.443 12.736-26.029 20.461l-0.979 0.979c-0.798 0.828-1.633 1.602-2.51 2.328l-0.050 0.040c-52.966 56.358-127.988 91.461-211.209 91.461-83.806 0-159.297-35.598-212.178-92.497l-0.165-0.18c-0.768-0.704-1.536-1.344-2.304-2.112-22.74-23.397-54.509-37.915-89.669-37.915-12.005 0-23.616 1.693-34.605 4.852l0.882-0.217c-55.102 15.225-94.893 64.91-94.893 123.89 0 47.329 25.624 88.674 63.755 110.918l0.609 0.328c7.772 4.568 16.759 8.566 26.206 11.525l0.93 0.251c1.38 0.208 2.549 0.454 3.694 0.758l-0.238-0.054c131.311 29.323 227.997 144.857 227.997 282.972 0 29.332-4.361 57.645-12.469 84.327l0.536-2.051zM768.832 156.864c13.671-8.047 30.116-12.8 47.671-12.8 0.071 0 0.142 0 0.212 0h-0.011c8.909 0.026 17.525 1.239 25.711 3.489l-0.687-0.161c41.316 11.327 71.175 48.544 71.175 92.735 0 53.019-42.981 96-96 96s-96-42.981-96-96c0-35.344 19.1-66.226 47.54-82.889l0.453-0.245zM789.12 256c5.638 9.624 15.928 15.985 27.704 15.985 17.673 0 32-14.327 32-32 0-14.711-9.927-27.104-23.448-30.844l-0.225-0.053c-2.504-0.719-5.379-1.132-8.351-1.132-5.865 0-11.353 1.61-16.048 4.412l0.144-0.079c-9.659 5.63-16.047 15.939-16.047 27.74 0 5.88 1.586 11.389 4.353 16.124l-0.082-0.152zM972.8 547.84c3.035 0.019 5.964 0.438 8.748 1.208l-0.236-0.056c13.652 3.856 23.489 16.203 23.489 30.847 0 3.029-0.421 5.961-1.208 8.738l0.055-0.226c-23.838 84.241-66.719 156.597-123.859 214.933l0.083-0.085c-5.817 5.938-13.919 9.62-22.88 9.62-17.684 0-32.020-14.336-32.020-32.020 0-8.723 3.488-16.631 9.145-22.405l-0.005 0.005c49.725-50.735 87.105-113.756 107.159-184.081l0.745-3.055c3.874-13.604 16.182-23.403 30.782-23.424h0.002zM144.128 803.2c-57.065-58.267-99.948-130.646-122.923-211.406l-0.853-3.506c-0.732-2.552-1.153-5.483-1.153-8.513 0-14.644 9.837-26.991 23.264-30.793l0.226-0.055c2.542-0.691 5.461-1.088 8.473-1.088 0.014 0 0.027 0 0.041 0h-0.002c14.618 0.030 26.933 9.857 30.729 23.263l0.055 0.225c20.799 73.38 58.179 136.401 107.974 187.208l-0.070-0.072c5.652 5.769 9.14 13.677 9.14 22.4 0 17.684-14.336 32.020-32.020 32.020-8.961 0-17.063-3.681-22.875-9.614l-0.005-0.005zM364.8-9.216c-0.657-2.421-1.034-5.202-1.034-8.070 0-14.811 10.062-27.271 23.723-30.919l0.224-0.051c37.367-10.006 80.269-15.752 124.512-15.752s87.145 5.747 127.998 16.535l-3.486-0.782c13.913 3.692 23.999 16.172 23.999 31.008 0 17.69-14.341 32.031-32.031 32.031-2.854 0-5.622-0.373-8.256-1.074l0.224 0.051c-32.547-8.695-69.914-13.689-108.448-13.689s-75.901 4.994-111.49 14.37l3.042-0.681c-2.399 0.645-5.154 1.015-7.995 1.015-14.827 0-27.298-10.084-30.931-23.767l-0.050-0.223zM742.4 715.52c-6.022-5.826-9.76-13.981-9.76-23.008 0-8.646 3.429-16.49 9-22.249l-0.008 0.009c35.672-36.364 62.527-81.505 77.026-131.879l0.542-2.201c3.834-13.679 16.188-23.544 30.847-23.552h0.001c3.012 0.017 5.919 0.436 8.679 1.207l-0.231-0.055c13.704 3.822 23.592 16.194 23.592 30.876 0 2.996-0.412 5.896-1.182 8.646l0.054-0.225c-18.040 63.355-50.282 117.778-93.194 161.74l0.074-0.076c-5.834 6.079-14.026 9.856-23.101 9.856-8.694 0-16.578-3.467-22.346-9.094l0.006 0.006zM236.16 714.752c-42.766-43.9-74.945-98.322-92.279-159.008l-0.649-2.656c-0.716-2.525-1.128-5.425-1.128-8.42 0-14.682 9.887-27.054 23.367-30.822l0.225-0.054c2.53-0.718 5.437-1.138 8.44-1.152h0.008c14.582 0.098 26.84 9.935 30.602 23.327l0.054 0.225c14.984 52.561 41.776 97.702 77.43 134.136l-0.054-0.056c5.631 5.779 9.103 13.684 9.103 22.4 0 17.735-14.377 32.111-32.111 32.111-9.018 0-17.169-3.718-23.001-9.704l-0.007-0.007zM418.944 75.904c27.924-7.541 59.984-11.872 93.056-11.872s65.132 4.332 95.644 12.459l-2.588-0.586c13.948 3.657 24.071 16.15 24.071 31.008 0 17.677-14.33 32.007-32.007 32.007-2.82 0-5.554-0.365-8.159-1.049l0.223 0.050c-23.158-6.31-49.748-9.936-77.184-9.936s-54.026 3.625-79.316 10.423l2.132-0.488c-2.382 0.635-5.116 0.999-7.936 0.999-17.677 0-32.007-14.33-32.007-32.007 0-14.858 10.123-27.351 23.848-30.958l0.223-0.050z" />
<glyph unicode="&#xe926;" glyph-name="gift-box" d="M960 640h-202.496c13.367 8.914 25.036 18.327 35.792 28.684l-0.080-0.076c23.915 24.175 38.689 57.434 38.689 94.144s-14.774 69.969-38.7 94.156l0.012-0.012c-24.296 23.406-57.392 37.823-93.856 37.823s-69.56-14.418-93.898-37.864l0.042 0.040c-27.712-27.84-101.376-141.184-91.2-216.896h-4.608c10.112 75.712-63.488 189.056-91.2 216.896-24.296 23.406-57.392 37.823-93.856 37.823s-69.56-14.418-93.898-37.864l0.042 0.040c-23.9-24.182-38.663-57.439-38.663-94.144s14.763-69.962 38.675-94.157l-0.013 0.013c10.676-10.279 22.346-19.693 34.796-28.031l0.916-0.577h-202.496c-35.346 0-64-28.654-64-64v0-160c0-17.673 14.327-32 32-32v0h32v-384c0-35.346 28.654-64 64-64v0h768c35.346 0 64 28.654 64 64v0 384h32c17.673 0 32 14.327 32 32v0 160c0 35.346-28.654 64-64 64v0zM579.712 642.112c-14.848 15.488 28.032 126.336 71.168 169.664 12.449 12.315 29.576 19.923 48.48 19.923 38.078 0 68.947-30.869 68.947-68.947 0-19.174-7.827-36.521-20.461-49.018l-0.006-0.006c-42.497-37.352-95.67-63.542-154.373-73.469l-1.851-0.259c-0.711-0.084-1.535-0.132-2.37-0.132-3.474 0-6.755 0.829-9.656 2.3l0.122-0.056zM276.16 713.728c-12.444 12.593-20.13 29.911-20.13 49.024s7.687 36.431 20.137 49.031l-0.007-0.007c12.369 12.489 29.522 20.222 48.48 20.222s36.111-7.733 48.475-20.216l0.005-0.005c43.136-43.392 86.016-154.24 71.104-169.664-2.752-1.417-6.005-2.248-9.452-2.248-0.841 0-1.671 0.050-2.487 0.146l0.099-0.009c-60.551 10.2-113.721 36.387-156.578 74.033l0.354-0.305zM64 576h416v-128h-416zM128 384h352v-384h-352zM896 0h-352v384h352zM960 448h-416v128h416z" />
<glyph unicode="&#xe927;" glyph-name="gift-card" d="M960 768h-896c-35.346 0-64-28.654-64-64v0-576c0-35.346 28.654-64 64-64v0h896c35.346 0 64 28.654 64 64v0 576c0 35.346-28.654 64-64 64v0zM960 704v-256h-145.344c20.353 6.954 38.001 16.485 53.71 28.433l-0.462-0.337c16.673 17.246 26.948 40.769 26.948 66.692 0 53.019-42.981 96-96 96-25.923 0-49.446-10.275-66.719-26.974l0.027 0.026c-14.4-14.4-56.192-64-92.096-107.008v199.168zM699.2 475.84c33.344 40 67.2 79.744 78.208 90.752 5.839 5.993 13.99 9.711 23.008 9.711 17.735 0 32.111-14.377 32.111-32.111 0-8.716-3.473-16.621-9.11-22.407l0.007 0.007c-35.181-17.566-76.476-33.26-119.454-44.856l-4.77-1.096zM64 704h512v-199.168c-35.904 43.072-77.696 92.608-92.096 107.008-17.376 17.384-41.384 28.136-67.904 28.136-53.024 0-96.008-42.984-96.008-96.008 0-26.504 10.74-50.5 28.104-67.872v0c15.247-11.61 32.895-21.141 51.927-27.7l1.321-0.396h-337.344zM516.864 475.84c-47.612 12.803-88.663 28.358-127.696 47.408l4.176-1.84c-5.558 5.749-8.983 13.59-8.983 22.231 0 17.673 14.327 32 32 32 8.641 0 16.482-3.425 22.24-8.991l-0.009 0.009c11.008-11.072 44.864-50.816 78.272-90.816zM64 128v256h466.752l-105.408-105.344c-6.027-5.827-9.769-13.985-9.769-23.017 0-17.673 14.327-32 32-32 9.032 0 17.19 3.742 23.009 9.76l105.417 105.353v-210.752zM960 96v32h-320v210.752l105.344-105.344c5.749-5.558 13.59-8.983 22.231-8.983 17.673 0 32 14.327 32 32 0 8.641-3.425 16.482-8.991 22.24l-105.335 105.335h274.752v-256zM352 256h-192c-17.673 0-32-14.327-32-32s14.327-32 32-32v0h192c17.673 0 32 14.327 32 32s-14.327 32-32 32v0z" />
<glyph unicode="&#xe928;" glyph-name="groceries" d="M992 640h-160v224c0 17.673-14.327 32-32 32v0h-160v32c0 17.673-14.327 32-32 32v0h-256c-17.673 0-32-14.327-32-32v0-96h-160c-17.673 0-32-14.327-32-32v0-160h-96c-17.673 0-32-14.327-32-32v0-128c0-17.673 14.327-32 32-32v0h38.976l121.92-487.744c3.589-14.041 16.126-24.256 31.049-24.256 0.019 0 0.039 0 0.058 0h575.997c14.919 0.004 27.452 10.218 30.992 24.034l0.048 0.222 121.984 487.744h38.976c17.673 0 32 14.327 32 32v0 128c0 17.673-14.327 32-32 32v0zM768 832v-192h-128v192zM384 896h192v-256h-192v256zM192 768h128v-128h-128zM774.976 0h-525.952l-112 448h749.952zM960 512h-896v64h896zM512 64c17.673 0 32 14.327 32 32v0 192c0 17.673-14.327 32-32 32s-32-14.327-32-32v0-192c0-17.673 14.327-32 32-32v0zM352 64c17.673 0 32 14.327 32 32v0 192c0 17.673-14.327 32-32 32s-32-14.327-32-32v0-192c0-17.673 14.327-32 32-32v0zM672 64c17.673 0 32 14.327 32 32v0 192c0 17.673-14.327 32-32 32s-32-14.327-32-32v0-192c0-17.673 14.327-32 32-32v0z" />
<glyph unicode="&#xe929;" glyph-name="group" d="M664.704 578.624c-14.886-2.939-25.956-15.889-25.956-31.424 0-17.663 14.311-31.984 31.97-32h0.002c2.154 0.006 4.255 0.216 6.29 0.61l-0.21-0.034c89.232 17.703 155.569 95.361 155.569 188.512 0 106.039-85.961 192-192 192-49.952 0-95.448-19.075-129.602-50.339l0.145 0.131c-6.444-5.877-10.472-14.308-10.472-23.68 0-17.678 14.331-32.008 32.008-32.008 8.306 0 15.872 3.163 21.561 8.351l-0.025-0.023c22.69 20.827 53.072 33.592 86.435 33.592 70.692 0 128-57.308 128-128 0-62.125-44.258-113.913-102.965-125.553l-0.814-0.135zM1022.4 295.936c-1.814 6.050-4.903 11.25-8.973 15.502l0.013-0.014c-0.32 0.32-0.512 0.768-0.896 1.088-99.168 84.128-228.613 135.285-370.007 135.285-7.87 0-15.702-0.158-23.494-0.472l1.118 0.036c-17.141-0.689-30.776-14.752-30.776-32 0-17.687 14.338-32.024 32.024-32.024 0.439 0 0.876 0.009 1.31 0.026l-0.062-0.002c5.709 0.229 12.411 0.36 19.143 0.36 120.826 0 231.833-42.043 319.19-112.297l-0.989 0.769v-80.192h-96c-17.673 0-32-14.327-32-32s14.327-32 32-32v0h96c35.346 0 64 28.654 64 64v0 96c0 0.512 0 0.896 0 1.344-0.328 2.466-0.888 4.691-1.67 6.809l0.070-0.217zM192 576c0-106.039 85.961-192 192-192s192 85.961 192 192c0 106.039-85.961 192-192 192v0c-106.039 0-192-85.961-192-192v0zM512 576c0-70.692-57.308-128-128-128s-128 57.308-128 128c0 70.692 57.308 128 128 128v0c70.692 0 128-57.308 128-128v0zM64 0h640c35.346 0 64 28.654 64 64v0 96c0 0.512 0 0.896 0 1.344-0.723 4.628-1.726 8.705-3.037 12.641l0.157-0.545c-1.002 1.799-2.062 3.349-3.245 4.792l0.045-0.056c-1.275 1.975-2.668 3.693-4.224 5.248v0c-0.384 0.32-0.512 0.768-0.896 1.088-99.974 84.411-230.283 135.717-372.576 135.717s-272.602-51.306-373.439-136.427l0.863 0.71c-0.384 0-0.512-0.768-0.896-1.088-1.554-1.573-2.948-3.312-4.148-5.186l-0.076-0.126c-1.112-1.367-2.15-2.896-3.053-4.51l-0.083-0.162c-0.632-1.552-1.185-3.396-1.566-5.302l-0.034-0.202c-0.62-1.852-1.094-4.022-1.332-6.263l-0.012-0.137c0-0.512 0-0.896 0-1.344v-96.192c0 0 0-0.001 0-0.002 0-35.189 28.399-63.744 63.528-63.998h0.024zM704 144.192v-80.192h-640v80.192c86.98 69.538 198.579 111.588 320 111.588s233.019-42.050 321.028-112.382l-1.028 0.794z" />
<glyph unicode="&#xe92a;" glyph-name="hamburger" d="M1004.288 514.432v0c4.010 1.718 7.431 4.073 10.301 6.973l0.003 0.003c1.172 1.424 2.253 3.016 3.183 4.703l0.081 0.161c1.286 1.569 2.455 3.331 3.438 5.205l0.082 0.171c1.614 3.637 2.575 7.876 2.624 12.334v0.018c-0.209 1.573-0.5 2.96-0.883 4.308l0.051-0.212c-0.178 2.986-0.75 5.778-1.666 8.41l0.066-0.218c-85.45 201.084-281.293 339.533-509.472 339.533s-424.022-138.449-508.106-335.924l-1.366-3.609c-0.85-2.414-1.422-5.206-1.596-8.106l-0.004-0.086c-0.385-1.124-0.74-2.501-0.996-3.913l-0.028-0.183c0.024-4.418 0.939-8.616 2.575-12.432l-0.079 0.208c1.065-2.045 2.234-3.807 3.564-5.431l-0.044 0.055c1.011-1.848 2.092-3.44 3.307-4.918l-0.043 0.054c2.873-2.903 6.294-5.258 10.096-6.896l0.208-0.080c1.404-0.417 3.076-0.755 4.791-0.948l0.137-0.012c2.19-0.791 4.732-1.358 7.371-1.592l0.117-0.008h4.224l-30.848-46.272c-0.576-0.832-0.64-1.792-1.088-2.688-1.903-3.542-3.22-7.682-3.699-12.073l-0.013-0.151c-0.064-0.96-0.576-1.792-0.576-2.816s0.512-3.712 0.64-5.632v-0.768c1.216-25.799 10.034-49.324 24.244-68.636l-0.244 0.348c-15.472-24.025-24.665-53.363-24.665-84.849 0-36.472 12.336-70.062 33.064-96.826l-0.27 0.363h-0.768c-0.012 0-0.026 0-0.040 0-17.673 0-32-14.327-32-32 0-3.617 0.6-7.094 1.706-10.337l-0.067 0.225 20.224-60.672c30.557-89.78 114.132-153.216 212.522-153.216 0.008 0 0.015 0 0.023 0h555.263c98.374 0.019 181.927 63.449 212.013 151.639l0.467 1.577 20.224 60.672c1.039 3.018 1.64 6.495 1.64 10.112 0 17.665-14.313 31.986-31.974 32h-1.025c20.569 26.407 32.979 60.052 32.979 96.594 0 31.492-9.216 60.832-25.099 85.469l0.376-0.623c13.989 18.915 22.829 42.396 24.053 67.874l0.011 0.286v0.896c0 1.92 0.64 3.712 0.64 5.632s-0.512 1.856-0.576 2.816c-0.49 4.542-1.808 8.682-3.801 12.406l0.089-0.182c-0.448 0.832-0.512 1.856-1.088 2.688l-30.784 46.144h4.224c4.434 0.014 8.655 0.906 12.505 2.512l-0.217-0.080zM512 832c0.017 0 0.037 0 0.057 0 184.11 0 344.292-102.453 426.641-253.457l1.27-2.543h-855.936c83.619 153.547 243.8 256 427.911 256 0.020 0 0.041 0 0.061 0h-0.004zM941.376 109.44c-21.82-64.111-81.488-109.414-151.741-109.44h-555.267c-70.256 0.026-129.924 45.329-151.41 108.314l-0.334 1.126-6.4 18.56h137.088l119.488-89.6c5.281-3.996 11.96-6.4 19.2-6.4s13.919 2.404 19.28 6.458l-0.080-0.058 119.488 89.6h456.896zM320 128h64l-32-24zM160 192c-53.019 0-96 42.981-96 96v0c0.365 16.353 4.905 31.571 12.589 44.728l-0.237-0.44c15.182-6.574 32.862-10.398 51.435-10.398 37.867 0 72.022 15.895 96.156 41.377l0.057 0.060c23.569-26.632 57.834-43.336 96-43.336s72.431 16.704 95.883 43.201l0.117 0.135c23.569-26.632 57.834-43.336 96-43.336s72.431 16.704 95.883 43.201l0.117 0.135c23.569-26.632 57.834-43.336 96-43.336s72.431 16.704 95.883 43.201l0.117 0.135c23.568-26.627 57.83-43.328 95.993-43.328 0.003 0 0.005 0 0.008 0h-0.001c18.917 0.067 36.823 4.33 52.856 11.907l-0.76-0.323c6.903-12.857 10.959-28.131 10.959-44.352 0-52.533-42.536-95.131-95.045-95.232h-0.010zM958.336 440.768c-1.694-16.879-9.906-31.566-22.046-41.712l-0.098-0.080c-10.873-8.55-24.76-13.713-39.854-13.713-27.519 0-51.029 17.162-60.412 41.367l-0.151 0.442c-2.392 6.046-3.779 13.049-3.779 20.377 0 0.194 0.001 0.387 0.003 0.581v-0.030c0 17.673-14.327 32-32 32s-32-14.327-32-32v0c0.001-0.136 0.002-0.297 0.002-0.458 0-7.596-1.457-14.851-4.108-21.502l0.138 0.392c-8.974-24.962-32.443-42.492-60.006-42.492-27.825 0-51.478 17.864-60.115 42.749l-0.135 0.447c-2.392 6.045-3.778 13.048-3.778 20.375 0 0.172 0.001 0.343 0.002 0.515v-0.026c0 17.673-14.327 32-32 32s-32-14.327-32-32v0c0.001-0.136 0.002-0.297 0.002-0.458 0-7.596-1.457-14.851-4.108-21.502l0.138 0.392c-8.974-24.962-32.443-42.492-60.006-42.492-27.825 0-51.478 17.864-60.115 42.749l-0.135 0.447c-2.392 6.045-3.778 13.048-3.778 20.375 0 0.172 0.001 0.343 0.002 0.515v-0.026c0 17.673-14.327 32-32 32s-32-14.327-32-32v0c0.001-0.136 0.002-0.297 0.002-0.458 0-7.596-1.457-14.851-4.108-21.502l0.138 0.392c-8.974-24.962-32.443-42.492-60.006-42.492-27.825 0-51.478 17.864-60.115 42.749l-0.135 0.447c-2.392 6.045-3.778 13.048-3.778 20.375 0 0.172 0.001 0.343 0.002 0.515v-0.026c0 17.673-14.327 32-32 32s-32-14.327-32-32v0c0.001-0.136 0.002-0.297 0.002-0.458 0-7.596-1.457-14.851-4.108-21.502l0.138 0.392c-9.342-24.512-32.652-41.609-59.955-41.609-15.751 0-30.173 5.69-41.322 15.126l0.094-0.077c-11.776 10.086-19.637 24.448-21.165 40.652l-0.019 0.244 47.488 71.232h797.696z" />
<glyph unicode="&#xe92b;" glyph-name="hand-truck" d="M310.656 822.592l-128 128c-5.749 5.558-13.59 8.983-22.231 8.983-17.673 0-32-14.327-32-32 0-8.641 3.425-16.482 8.991-22.24l118.583-118.647v-664.576c-37.926-13.403-64.612-48.947-64.612-90.724 0-53.019 42.981-96 96-96 41.777 0 77.32 26.685 90.516 63.94l0.207 0.672h485.888c17.673 0 32 14.327 32 32s-14.327 32-32 32v0h-32v352c0 17.673-14.327 32-32 32v0h-96v224c0 17.673-14.327 32-32 32v0h-352v96c-0.002 8.82-3.572 16.806-9.345 22.593l0.001-0.001zM288 0c-17.673 0-32 14.327-32 32s14.327 32 32 32c17.673 0 32-14.327 32-32v0c0-17.673-14.327-32-32-32v0zM768 64h-389.888c-9.902 27.172-30.941 48.21-57.445 57.899l-0.667 0.213v261.888h128v-96c0-17.673 14.327-32 32-32v0h128c17.673 0 32 14.327 32 32v0 96h128zM576 384v-64h-64v64zM448 640v-32c0-17.673 14.327-32 32-32s32 14.327 32 32v0 32h128v-192h-320v192z" />
<glyph unicode="&#xe92c;" glyph-name="health-report" d="M672 896h-69.504c-13.588 37.585-48.962 63.961-90.496 63.961s-76.908-26.377-90.284-63.293l-0.212-0.668h-69.504c-17.673 0-32-14.327-32-32v0-32h-128c-0.191 0.002-0.417 0.003-0.643 0.003-34.993 0-63.36-28.367-63.36-63.36 0-0.226 0.001-0.452 0.004-0.678v0.034-768c-0.002-0.191-0.003-0.417-0.003-0.643 0-34.993 28.367-63.36 63.36-63.36 0.226 0 0.452 0.001 0.678 0.004h639.966c0.191-0.002 0.417-0.003 0.643-0.003 34.993 0 63.36 28.367 63.36 63.36 0 0.226-0.001 0.452-0.004 0.678v-0.034 768c0.002 0.191 0.003 0.417 0.003 0.643 0 34.993-28.367 63.36-63.36 63.36-0.226 0-0.452-0.001-0.678-0.004h-127.966v32c0 17.673-14.327 32-32 32v0zM384 832h64c17.673 0 32 14.327 32 32v0c0 17.673 14.327 32 32 32s32-14.327 32-32v0c0-17.673 14.327-32 32-32v0h64v-64h-256zM192 0v384h80l86.4-115.2c5.9-7.803 15.165-12.794 25.595-12.794 13.382 0 24.846 8.214 29.623 19.876l0.077 0.213 93.248 233.088 102.4-358.016c3.83-13.076 15.45-22.57 29.374-23.166l0.066-0.002h1.216c13.626 0 25.263 8.517 29.878 20.517l0.074 0.219 88.256 235.264h73.792v-384zM832 768v-320h-96c-13.626 0-25.263-8.517-29.878-20.517l-0.074-0.219-61.952-165.12-101.376 354.688c-3.795 12.98-15.261 22.431-29.040 23.165l-0.080 0.003c-0.645 0.048-1.398 0.075-2.157 0.075-13.238 0-24.548-8.253-29.067-19.894l-0.073-0.213-106.88-267.2-61.824 82.432c-5.9 7.807-15.167 12.8-25.6 12.8h-96v320h128v-32c0-17.673 14.327-32 32-32v0h320c17.673 0 32 14.327 32 32v0 32z" />
<glyph unicode="&#xe92d;" glyph-name="hyperloop" d="M0 448c0-251.2 98.432-448 224-448 54.204 3.523 100.788 33.202 127.601 76.429l0.399 0.691c3.849 5.221 6.159 11.78 6.159 18.88 0 17.682-14.334 32.015-32.015 32.015-10.582 0-19.965-5.134-25.794-13.047l-0.062-0.088c-16.281-27.114-43.671-46.132-75.715-50.811l-0.573-0.069c-75.712 0-160 157.696-160 384s84.288 384 160 384c32.819-4.596 60.418-23.65 76.533-50.403l0.267-0.477c5.891-8.001 15.274-13.135 25.856-13.135 17.682 0 32.015 14.334 32.015 32.015 0 7.1-2.311 13.659-6.221 18.968l0.062-0.088c-27.307 44.049-74.109 73.768-128.053 77.097l-0.459 0.023c-125.568 0-224-196.8-224-448zM160 224c0-17.673 14.327-32 32-32v0h160c17.673 0 32 14.327 32 32s-14.327 32-32 32v0h-160c-17.673 0-32-14.327-32-32v0zM956.416 438.528v0l-239.616 222.656c-28.369 26.527-66.601 42.816-108.638 42.816-0.057 0-0.114 0-0.171 0h-383.991c-17.673 0-32-14.327-32-32s14.327-32 32-32v0h100.544c19.008-94.72 101.376-256 443.456-256h153.152l18.432-17.152c12.564-11.718 20.397-28.368 20.397-46.848 0-35.339-28.643-63.989-63.979-64h-416.001c-17.673 0-32-14.327-32-32s14.327-32 32-32v0h416c70.678 0.019 127.966 57.32 127.966 128 0 36.993-15.693 70.321-40.785 93.689l-0.077 0.071zM768 448c-279.68 0-356.928 115.712-377.6 192h217.6c0.023 0 0.050 0 0.077 0 25.233 0 48.193-9.735 65.327-25.655l-0.060 0.055 179.2-166.4zM288 384h-128c-17.673 0-32-14.327-32-32s14.327-32 32-32v0h128c17.673 0 32 14.327 32 32s-14.327 32-32 32v0zM224 512h-64c-17.673 0-32-14.327-32-32s14.327-32 32-32v0h64c17.673 0 32 14.327 32 32s-14.327 32-32 32v0z" />
<glyph unicode="&#xe92e;" glyph-name="id-card" d="M64 64h896c0.191-0.002 0.417-0.003 0.643-0.003 34.993 0 63.36 28.367 63.36 63.36 0 0.226-0.001 0.452-0.004 0.678v-0.034 576c0.002 0.191 0.003 0.417 0.003 0.643 0 34.993-28.367 63.36-63.36 63.36-0.226 0-0.452-0.001-0.678-0.004h-223.966c-17.673 0-32-14.327-32-32s14.327-32 32-32v0h224v-576h-896v576h224c17.673 0 32 14.327 32 32s-14.327 32-32 32v0h-224c-0.191 0.002-0.417 0.003-0.643 0.003-34.993 0-63.36-28.367-63.36-63.36 0-0.226 0.001-0.452 0.004-0.678v0.034-576c-0.002-0.191-0.003-0.417-0.003-0.643 0-34.993 28.367-63.36 63.36-63.36 0.226 0 0.452 0.001 0.678 0.004h-0.034zM384 480c0 53.019-42.981 96-96 96s-96-42.981-96-96c0-53.019 42.981-96 96-96v0c53.019 0 96 42.981 96 96v0zM256 480c0 17.673 14.327 32 32 32s32-14.327 32-32c0-17.673-14.327-32-32-32v0c-17.673 0-32 14.327-32 32v0zM128 288v-64c0-17.673 14.327-32 32-32v0h256c17.673 0 32 14.327 32 32v0 64c-0.008 12.16-6.798 22.732-16.791 28.14l-0.169 0.084c-41.411 22.553-90.693 35.814-143.072 35.814s-101.661-13.261-144.672-36.609l1.6 0.794c-10.133-5.506-16.896-16.069-16.896-28.211 0-0.005 0-0.009 0-0.014v0.001zM192 267.968c28.27 12.676 61.273 20.060 96 20.060s67.73-7.384 97.524-20.667l-1.524 0.607v-11.968h-192zM800 448h-256c-17.673 0-32-14.327-32-32s14.327-32 32-32v0h256c17.673 0 32 14.327 32 32s-14.327 32-32 32v0zM800 320h-256c-17.673 0-32-14.327-32-32s14.327-32 32-32v0h256c17.673 0 32 14.327 32 32s-14.327 32-32 32v0zM512 896c-70.692 0-128-57.308-128-128v0-96c0-17.673 14.327-32 32-32v0h192c17.673 0 32 14.327 32 32v0 96c0 70.692-57.308 128-128 128v0zM576 704h-128v64c0 35.346 28.654 64 64 64s64-28.654 64-64v0z" />
<glyph unicode="&#xe92f;" glyph-name="inbox" d="M1022.336 424.192c-0.535 2.299-1.238 4.305-2.128 6.207l0.080-0.191c0 0.64 0 1.28-0.64 1.92l-224 384c-5.653 9.561-15.908 15.872-27.639 15.872-0.003 0-0.007 0-0.010 0h-511.999c-0.003 0-0.006 0-0.009 0-11.73 0-21.986-6.311-27.557-15.724l-0.081-0.148-224-384c-0.32-0.576-0.32-1.28-0.64-1.92-0.81-1.711-1.513-3.717-2.006-5.805l-0.042-0.211c-0.6-1.856-1.052-4.029-1.27-6.271l-0.010-0.129c0-0.512-0.384-1.088-0.384-1.792v-352c0-35.346 28.654-64 64-64v0h896c35.346 0 64 28.654 64 64v0 352c0 0.704-0.384 1.28-0.384 1.984-0.243 2.309-0.694 4.415-1.342 6.432l0.062-0.224zM274.368 768h475.264l186.624-320h-136.256c-12.446 0-23.233-7.106-28.524-17.483l-0.084-0.181-55.168-110.336h-408.384l-55.168 110.336c-5.375 10.558-16.162 17.664-28.609 17.664-0.022 0-0.044 0-0.066 0h-136.253zM960 32v32h-896v320h140.224l55.168-110.336c5.375-10.558 16.162-17.664 28.608-17.664h448c12.446 0 23.233 7.106 28.524 17.483l0.084 0.181 55.232 110.336h140.16v-320zM352 640h320c17.673 0 32 14.327 32 32s-14.327 32-32 32v0h-320c-17.673 0-32-14.327-32-32s14.327-32 32-32v0zM288 512h448c17.673 0 32 14.327 32 32s-14.327 32-32 32v0h-448c-17.673 0-32-14.327-32-32s14.327-32 32-32v0z" />
<glyph unicode="&#xe930;" glyph-name="isometric-graph" d="M32-64h768c8.852 0.002 16.863 3.598 22.655 9.407l128.001 128.001c5.738 5.808 9.298 13.78 9.344 22.583v320.009c-0.038 4.326-0.928 8.434-2.511 12.178l0.079-0.21c-2.362 5.219-5.92 9.537-10.34 12.737l-0.092 0.063c-0.929 0.732-1.974 1.45-3.064 2.101l-0.136 0.075c-4.502 2.984-9.982 4.841-15.881 5.054l-0.055 0.002h-224v224c-0.038 4.326-0.928 8.434-2.511 12.178l0.079-0.21c-2.362 5.219-5.92 9.537-10.34 12.737l-0.092 0.063c-0.929 0.732-1.974 1.45-3.064 2.101l-0.136 0.075c-4.502 2.984-9.982 4.841-15.881 5.054l-0.055 0.002h-224v224c-0.038 4.326-0.928 8.434-2.511 12.178l0.079-0.21c-2.308 5.315-5.851 9.721-10.282 12.995l-0.086 0.061c-0.929 0.732-1.974 1.45-3.064 2.101l-0.136 0.075c-4.539 2.908-10.051 4.68-15.968 4.799l-0.032 0.001h-256c-0.017 0-0.037 0-0.057 0-8.822 0-16.811-3.57-22.599-9.345l-127.999-127.999c-3.709-3.944-6.435-8.853-7.763-14.309l-0.045-0.219c-0.327-1.097-0.618-2.439-0.814-3.812l-0.018-0.156c-0.299-1.17-0.547-2.586-0.694-4.032l-0.010-0.128v-832c0-17.673 14.327-32 32-32v0zM384 685.248l-64-64v165.504l64 64zM640 429.248l-64-64v165.504l64 64zM896 109.248l-64-64v229.504l64 64zM768 0h-192v256h192zM512 0h-192v512h192zM256 0h-192v768h192zM786.752 320h-165.504l64 64h165.504zM530.752 576h-165.504l64 64h165.504zM173.248 896h165.504l-64-64h-165.504z" />
<glyph unicode="&#xe931;" glyph-name="map-pin" d="M512-64c0.017 0 0.037 0 0.057 0 8.822 0 16.811 3.57 22.599 9.345l-0.001-0.001c14.72 14.784 361.344 364.48 361.344 630.656 0 212.077-171.923 384-384 384s-384-171.923-384-384v0c0-266.176 346.624-615.872 361.344-630.656 5.788-5.774 13.776-9.344 22.599-9.344 0.020 0 0.040 0 0.060 0h-0.003zM512 896c176.643-0.218 319.781-143.357 320-319.979v-0.021c0-203.136-243.584-480-320-561.728-76.416 81.728-320 358.4-320 561.728 0.218 176.643 143.357 319.781 319.979 320h0.021zM704 576c0 106.039-85.961 192-192 192s-192-85.961-192-192c0-106.039 85.961-192 192-192v0c106.039 0 192 85.961 192 192v0zM384 576c0 70.692 57.308 128 128 128s128-57.308 128-128c0-70.692-57.308-128-128-128v0c-70.692 0-128 57.308-128 128v0z" />
<glyph unicode="&#xe932;" glyph-name="map-search" d="M980.096 957.696l-308.096-123.2-308.096 123.008c-3.515 1.445-7.596 2.284-11.872 2.284s-8.357-0.839-12.086-2.361l0.214 0.077h-0.576l-319.424-128c-11.844-4.809-20.063-16.185-20.16-29.492v-576.012c0.019-17.659 14.338-31.967 32-31.967 4.264 0 8.334 0.834 12.054 2.348l-0.214-0.077 195.84 78.080c12.035 4.78 20.388 16.324 20.388 29.819 0 17.673-14.327 32-32 32-4.351 0-8.499-0.868-12.28-2.441l0.212 0.078-152-60.608v507.136l256 102.4v-243.2c0-17.673 14.327-32 32-32s32 14.327 32 32v0 243.2l256-102.4v-48.128c0-17.673 14.327-32 32-32s32 14.327 32 32v0 48.064l256 102.4v-528.704c0-17.673 14.327-32 32-32s32 14.327 32 32v0 576c-0.004 17.67-14.329 31.993-32 31.993-4.288 0-8.38-0.844-12.117-2.374l0.213 0.077zM832 173.248c39.593 48.339 63.692 110.702 64 178.684v0.068c0 159.058-128.942 288-288 288s-288-128.942-288-288c0-159.058 128.942-288 288-288v0c68.050 0.308 130.413 24.407 179.258 64.401l-0.506-0.401 182.592-182.592c5.749-5.558 13.59-8.983 22.231-8.983 17.673 0 32 14.327 32 32 0 8.641-3.425 16.482-8.991 22.24l0.009-0.009zM384 352c0 123.712 100.288 224 224 224s224-100.288 224-224c0-123.712-100.288-224-224-224v0c-123.712 0-224 100.288-224 224v0z" />
<glyph unicode="&#xe933;" glyph-name="map" d="M992 512c-17.673 0-32-14.327-32-32v0-362.368l-256-102.4v336.768c0 17.673-14.327 32-32 32s-32-14.327-32-32v0-336.704l-256 102.4v507.008l148.288-59.328c3.515-1.444 7.596-2.283 11.872-2.283 17.679 0 32.011 14.332 32.011 32.011 0 13.403-8.237 24.882-19.925 29.651l-0.214 0.077-191.552 76.8h-0.576c-3.515 1.445-7.596 2.284-11.872 2.284s-8.357-0.839-12.086-2.361l0.214 0.077h-0.576l-319.424-128c-11.883-4.825-20.118-16.262-20.16-29.627v-576.005c0.004-17.67 14.329-31.993 32-31.993 4.288 0 8.38 0.844 12.117 2.374l-0.213-0.077 308.096 123.2 308.096-123.008c3.515-1.445 7.596-2.284 11.872-2.284s8.357 0.839 12.086 2.361l-0.214-0.077h0.576l319.424 128c11.844 4.809 20.063 16.185 20.16 29.492v384.012c0 17.673-14.327 32-32 32v0zM64 522.368l256 102.4v-507.072l-256-102.4zM800 832c-53.019 0-96-42.981-96-96s42.981-96 96-96c53.019 0 96 42.981 96 96v0c0 53.019-42.981 96-96 96v0zM800 704c-17.673 0-32 14.327-32 32s14.327 32 32 32c17.673 0 32-14.327 32-32v0c0-17.673-14.327-32-32-32v0zM800 960c-123.712 0-224-100.288-224-224v0c0-115.2 179.712-318.528 200.192-341.376 5.883-6.531 14.368-10.618 23.808-10.618s17.925 4.088 23.783 10.59l0.025 0.029c20.48 22.848 200.192 226.176 200.192 341.376 0 123.712-100.288 224-224 224v0zM800 464.832c-69.888 82.88-160 210.112-160 271.168 0 88.366 71.634 160 160 160s160-71.634 160-160v0c0-60.992-90.112-188.288-160-271.168z" />
<glyph unicode="&#xe934;" glyph-name="megaphone" d="M1002.816 958.144c-3.216 1.191-6.931 1.88-10.806 1.88-9.929 0-18.801-4.522-24.671-11.618l-0.043-0.054c-117.968-142.267-291.525-234.881-486.906-244.293l-1.542-0.059h-318.848c-17.673 0-32-14.327-32-32v0-32h-96c-17.673 0-32-14.327-32-32v0-192c0-17.673 14.327-32 32-32v0h96v-32c0-17.673 14.327-32 32-32v0h19.2l128.64-342.976c7.936-20.24 25.312-35.225 46.56-39.671l0.416-0.073c3.848-0.814 8.269-1.28 12.8-1.28v0c17.604 0.059 33.481 7.405 44.78 19.179l0.020 0.021 76.8 76.224c11.532 11.573 18.661 27.539 18.661 45.171 0 10.534-2.545 20.473-7.053 29.237l0.168-0.359-106.816 214.528h84.672c196.919-9.487 370.471-102.097 487.551-243.239l0.897-1.113c5.912-7.136 14.776-11.648 24.694-11.648 0.003 0 0.007 0 0.010 0h-0.001c0.003 0 0.007 0 0.010 0 3.874 0 7.588 0.68 11.031 1.927l-0.225-0.071c12.456 4.567 21.184 16.323 21.184 30.117 0 0.010 0 0.019 0 0.029v-0.001 832c0 0.008 0 0.018 0 0.027 0 13.794-8.728 25.549-20.962 30.045l-0.222 0.071zM64 448v128h64v-128zM444.672 76.8l-76.8-76.8-120.064 320h74.88zM448 384h-256v256h256zM960 177.664c-117.486 113.214-272.794 187.901-445.168 203.316l-2.832 0.204v261.632c175.199 15.6 330.507 90.266 448.23 203.676l-0.23-0.22z" />
<glyph unicode="&#xe935;" glyph-name="message" d="M128 128h209.024l150.464-180.48c5.895-7.042 14.681-11.496 24.508-11.52h0.004c0.012 0 0.026 0 0.040 0 9.623 0 18.254 4.248 24.12 10.97l0.032 0.038 156.8 180.992h203.008c70.692 0 128 57.308 128 128v0 576c0 70.692-57.308 128-128 128v0h-768c-70.692 0-128-57.308-128-128v0-576c0-70.692 57.308-128 128-128v0zM64 832c0 35.346 28.654 64 64 64v0h768c35.346 0 64-28.654 64-64v0-576c0-35.346-28.654-64-64-64v0h-217.6c-0.012 0-0.026 0-0.040 0-9.623 0-18.254-4.248-24.12-10.97l-0.032-0.038-141.696-163.584-135.936 163.072c-5.908 7.058-14.721 11.516-24.575 11.52h-224.001c-35.346 0-64 28.654-64 64v0zM288 448h256c17.673 0 32 14.327 32 32s-14.327 32-32 32v0h-256c-17.673 0-32-14.327-32-32s14.327-32 32-32v0zM288 640h448c17.673 0 32 14.327 32 32s-14.327 32-32 32v0h-448c-17.673 0-32-14.327-32-32s14.327-32 32-32v0z" />
<glyph unicode="&#xe936;" glyph-name="messages" d="M2.304 171.904c-1.453-3.524-2.297-7.616-2.297-11.904 0-17.671 14.323-31.996 31.992-32v0c4.29 0.013 8.38 0.858 12.12 2.382l-0.216-0.078 151.872 60.864c62.087-39.633 137.785-63.17 218.98-63.17 0.437 0 0.874 0.001 1.311 0.002h-0.068c229.75 0 416 186.25 416 416s-186.25 416-416 416c-229.75 0-416-186.25-416-416v0c-0.001-0.399-0.002-0.872-0.002-1.345 0-81.153 23.513-156.815 64.097-220.544l-0.991 1.665zM416 896c194.404 0 352-157.596 352-352s-157.596-352-352-352v0c-0.423-0.002-0.924-0.003-1.425-0.003-73.655 0-141.946 22.965-198.104 62.124l1.129-0.745c-5.088 3.564-11.406 5.695-18.223 5.695-4.295 0-8.392-0.846-12.134-2.381l0.213 0.077-97.856-39.168 39.296 98.048c1.398 3.462 2.208 7.477 2.208 11.682 0 6.837-2.144 13.173-5.796 18.372l0.068-0.102c-38.414 55.029-61.379 123.32-61.379 196.975 0 0.501 0.001 1.002 0.003 1.502v-0.077c0.218 194.316 157.684 351.782 351.979 352h0.021zM905.216 509.76c-7.525-5.911-12.315-15.011-12.315-25.229 0-7.404 2.515-14.221 6.736-19.643l-0.054 0.072c37.72-48.3 60.483-109.88 60.483-176.775 0-60.657-18.714-116.943-50.684-163.399l0.633 0.974c-3.519-5.066-5.623-11.346-5.623-18.117 0-4.287 0.843-8.376 2.372-12.112l-0.077 0.213 28.032-70.4-70.4 28.032c-3.523 1.452-7.612 2.295-11.899 2.295-6.771 0-13.051-2.103-18.223-5.692l0.106 0.069c-45.613-30.718-101.797-49.031-162.257-49.031-66.795 0-128.37 22.352-177.652 59.983l0.71-0.52c-5.305 4.054-12.031 6.495-19.327 6.495-17.673 0-32-14.327-32-32 0-10.12 4.697-19.142 12.031-25.006l0.064-0.049c59.415-45.393 134.733-72.733 216.437-72.733 67.811 0 131.223 18.832 185.291 51.552l-1.6-0.899 124.096-49.536c3.521-1.45 7.608-2.292 11.892-2.292 17.673 0 32 14.327 32 32 0 4.284-0.842 8.371-2.369 12.105l0.077-0.214-49.536 124.096c32.532 52.402 51.815 115.98 51.815 184.062 0 81.759-27.809 157.024-74.484 216.85l0.589-0.785c-5.91 7.543-15.021 12.346-25.253 12.346-7.422 0-14.254-2.527-19.682-6.767l0.071 0.053z" />
<glyph unicode="&#xe937;" glyph-name="mobile-apps" d="M256.576-63.488h576c35.346 0 64 28.654 64 64v0 896c0 35.346-28.654 64-64 64v0h-576c-35.346 0-64-28.654-64-64v0-896c0-35.346 28.654-64 64-64v0zM256.576 0.512v64h576v-64zM256.576 128.512v640h576v-640zM832.576 896.512v-64h-576v64zM480 704h-128c-17.673 0-32-14.327-32-32v0-128c0-17.673 14.327-32 32-32v0h128c17.673 0 32 14.327 32 32v0 128c0 17.673-14.327 32-32 32v0zM448 576h-64v64h64zM736 704h-128c-17.673 0-32-14.327-32-32v0-128c0-17.673 14.327-32 32-32v0h128c17.673 0 32 14.327 32 32v0 128c0 17.673-14.327 32-32 32v0zM704 576h-64v64h64zM480 448h-128c-17.673 0-32-14.327-32-32v0-128c0-17.673 14.327-32 32-32v0h128c17.673 0 32 14.327 32 32v0 128c0 17.673-14.327 32-32 32v0zM448 320h-64v64h64z" />
<glyph unicode="&#xe938;" glyph-name="money-bag" d="M352-64h320c123.712 0 224 100.288 224 224v0c-0.022 49.79-13.195 96.499-36.234 136.846l0.714-1.358-229.76 408.512h9.28c17.673 0 32 14.327 32 32s-14.327 32-32 32v0h-4.224l94.848 142.272c3.358 4.983 5.359 11.122 5.359 17.728 0 17.667-14.317 31.991-31.983 32h-384.001c-17.666-0.009-31.983-14.333-31.983-32 0-6.606 2.002-12.745 5.432-17.842l-0.073 0.114 94.848-142.272h-4.224c-17.673 0-32-14.327-32-32s14.327-32 32-32v0h9.28l-229.76-408.512c-22.325-38.989-35.498-85.698-35.52-135.482v-0.006c0-123.712 100.288-224 224-224v0zM379.84 896h264.384l-85.376-128h-93.696zM219.264 264.064l247.424 439.936h90.624l247.424-439.936c17.116-29.955 27.224-65.825 27.264-104.053v-0.011c0-88.366-71.634-160-160-160v0h-320c-88.366 0-160 71.634-160 160v0c0.040 38.24 10.148 74.11 27.815 105.114l-0.551-1.050zM512 192h-64c-17.673 0-32-14.327-32-32s14.327-32 32-32v0h32v-32c0-17.673 14.327-32 32-32s32 14.327 32 32v0 37.888c37.032 13.878 62.913 48.975 62.913 90.118 0 52.637-42.363 95.38-94.855 95.993l-0.058 0.001c-17.673 0-32 14.327-32 32s14.327 32 32 32v0h64c17.673 0 32 14.327 32 32s-14.327 32-32 32v0h-32v32c0 17.673-14.327 32-32 32s-32-14.327-32-32v0-37.888c-37.032-13.878-62.913-48.975-62.913-90.118 0-52.637 42.363-95.38 94.855-95.993l0.058-0.001c17.673 0 32-14.327 32-32s-14.327-32-32-32v0z" />
<glyph unicode="&#xe939;" glyph-name="money-dollar" d="M960 768h-896c-35.346 0-64-28.654-64-64v0-576c0-35.346 28.654-64 64-64v0h896c35.346 0 64 28.654 64 64v0 576c0 35.346-28.654 64-64 64v0zM771.264 128h-518.4c-14.628 97.827-91.019 174.174-187.641 188.586l-1.223 0.15v198.4c97.827 14.628 174.174 91.019 188.586 187.641l0.15 1.223h518.4c14.628-97.827 91.019-174.174 187.641-188.586l1.223-0.15v-198.4c-97.827-14.628-174.174-91.019-188.586-187.641l-0.15-1.223zM960 579.264c-62.813 13.287-111.449 61.923-124.55 123.687l-0.186 1.049h124.736zM188.736 704c-13.287-62.813-61.923-111.449-123.687-124.55l-1.049-0.186v124.736zM64 252.736c62.813-13.287 111.449-61.923 124.55-123.687l0.186-1.049h-124.736zM960 96v32h-124.736c13.287 62.813 61.923 111.449 123.687 124.55l1.049 0.186v-124.736zM512 512h64c17.673 0 32 14.327 32 32s-14.327 32-32 32v0h-32v32c0 17.673-14.327 32-32 32s-32-14.327-32-32v0-37.888c-37.032-13.878-62.913-48.975-62.913-90.118 0-52.637 42.363-95.38 94.855-95.993l0.058-0.001c17.673 0 32-14.327 32-32s-14.327-32-32-32v0h-64c-17.673 0-32-14.327-32-32s14.327-32 32-32v0h32v-32c0-17.673 14.327-32 32-32s32 14.327 32 32v0 37.888c37.032 13.878 62.913 48.975 62.913 90.118 0 52.637-42.363 95.38-94.855 95.993l-0.058 0.001c-17.673 0-32 14.327-32 32s14.327 32 32 32v0z" />
<glyph unicode="&#xe93a;" glyph-name="money-stack" d="M160 832h704c17.673 0 32 14.327 32 32s-14.327 32-32 32v0h-704c-17.673 0-32-14.327-32-32s14.327-32 32-32v0zM960 768h-896c-35.346 0-64-28.654-64-64v0-576c0-35.346 28.654-64 64-64v0h896c35.346 0 64 28.654 64 64v0 576c0 35.346-28.654 64-64 64v0zM771.264 128h-518.4c-14.628 97.827-91.019 174.174-187.641 188.586l-1.223 0.15v198.4c97.827 14.628 174.174 91.019 188.586 187.641l0.15 1.223h518.4c14.628-97.827 91.019-174.174 187.641-188.586l1.223-0.15v-198.4c-97.827-14.628-174.174-91.019-188.586-187.641l-0.15-1.223zM960 579.264c-62.813 13.287-111.449 61.923-124.55 123.687l-0.186 1.049h124.736zM188.736 704c-13.287-62.813-61.923-111.449-123.687-124.55l-1.049-0.186v124.736zM64 252.736c62.813-13.287 111.449-61.923 124.55-123.687l0.186-1.049h-124.736zM960 96v32h-124.736c13.287 62.813 61.923 111.449 123.687 124.55l1.049 0.186v-124.736zM512 544c-70.692 0-128-57.308-128-128s57.308-128 128-128c70.692 0 128 57.308 128 128v0c0 70.692-57.308 128-128 128v0zM512 352c-35.346 0-64 28.654-64 64s28.654 64 64 64c35.346 0 64-28.654 64-64v0c0-35.346-28.654-64-64-64v0z" />
<glyph unicode="&#xe93b;" glyph-name="money" d="M64 64h896c35.346 0 64 28.654 64 64v0 576c0 35.346-28.654 64-64 64v0h-896c-35.346 0-64-28.654-64-64v0-576c0-35.346 28.654-64 64-64v0zM252.736 704h518.4c14.628-97.827 91.019-174.174 187.641-188.586l1.223-0.15v-198.4c-97.827-14.628-174.174-91.019-188.586-187.641l-0.15-1.223h-518.4c-14.628 97.827-91.019 174.174-187.641 188.586l-1.223 0.15v198.4c97.827 14.628 174.174 91.019 188.586 187.641l0.15 1.223zM64 252.736c62.813-13.287 111.449-61.923 124.55-123.687l0.186-1.049h-124.736zM960 96v32h-124.736c13.287 62.813 61.923 111.449 123.687 124.55l1.049 0.186v-124.736zM960 579.264c-62.813 13.287-111.449 61.923-124.55 123.687l-0.186 1.049h124.736zM188.736 704c-13.287-62.813-61.923-111.449-123.687-124.55l-1.049-0.186v124.736zM512 288c70.692 0 128 57.308 128 128s-57.308 128-128 128c-70.692 0-128-57.308-128-128v0c0-70.692 57.308-128 128-128v0zM512 480c35.346 0 64-28.654 64-64s-28.654-64-64-64c-35.346 0-64 28.654-64 64v0c0 35.346 28.654 64 64 64v0z" />
<glyph unicode="&#xe93c;" glyph-name="monster" d="M512 960c-282.77 0-512-229.23-512-512s229.23-512 512-512c282.77 0 512 229.23 512 512v0c-0.327 282.638-229.362 511.672-511.968 512h-0.032zM512 0c-247.424 0-448 200.576-448 448s200.576 448 448 448c247.424 0 448-200.576 448-448v0c-0.291-247.307-200.694-447.709-447.973-448h-0.027zM512 672c-53.019 0-96-42.981-96-96s42.981-96 96-96c53.019 0 96 42.981 96 96v0c0 53.019-42.981 96-96 96v0zM512 544c-17.673 0-32 14.327-32 32s14.327 32 32 32c17.673 0 32-14.327 32-32v0c0-17.673-14.327-32-32-32v0zM512 832c-141.385 0-256-114.615-256-256s114.615-256 256-256c141.385 0 256 114.615 256 256v0c0 141.385-114.615 256-256 256v0zM512 384c-106.039 0-192 85.961-192 192s85.961 192 192 192c106.039 0 192-85.961 192-192v0c0-106.039-85.961-192-192-192v0zM608 192h-192c-17.673 0-32-14.327-32-32s14.327-32 32-32v0h192c17.673 0 32 14.327 32 32s-14.327 32-32 32v0z" />
<glyph unicode="&#xe93d;" glyph-name="music-album" d="M448 64c71.808 0 128 42.176 128 96v339.84c35.083-11.314 60.637-42.185 63.974-79.454l0.026-0.354c0-17.673 14.327-32 32-32s32 14.327 32 32v0c0 100.096-100.8 145.472-154.048 155.456-0.96 0-1.856 0-2.816 0-0.848 0.198-1.915 0.378-3 0.5l-0.136 0.012c-1.446-0.208-2.701-0.476-3.926-0.819l0.214 0.051c-2.129-0.233-4.061-0.638-5.919-1.211l0.223 0.059c-10.072-3.099-17.822-10.933-20.745-20.837l-0.055-0.219c-0.412-0.83-0.844-1.866-1.217-2.931l-0.063-0.205c0-1.024 0-1.92 0-2.944-0.188-0.778-0.367-1.778-0.496-2.794l-0.016-0.15v-300.8c-18.654 8.094-40.38 12.802-63.206 12.802-0.279 0-0.558-0.001-0.837-0.002h0.043c-71.808 0-128-42.176-128-96s56.192-96 128-96zM448 192c39.040 0 64-19.2 64-32s-24.96-32-64-32-64 19.2-64 32 24.96 32 64 32zM992 704h-96v96c0 17.673-14.327 32-32 32v0h-96v96c0 17.673-14.327 32-32 32v0h-448c-17.673 0-32-14.327-32-32v0-96h-96c-17.673 0-32-14.327-32-32v0-96h-96c-17.673 0-32-14.327-32-32v0-704c0-17.673 14.327-32 32-32v0h960c17.673 0 32 14.327 32 32v0 704c0 17.673-14.327 32-32 32v0zM320 896h384v-64h-384zM192 768h640v-64h-640zM960 0h-896v640h896z" />
<glyph unicode="&#xe93e;" glyph-name="office" d="M992 704h-224v224c0 17.673-14.327 32-32 32v0h-512c-17.673 0-32-14.327-32-32v0-416h-160c-17.673 0-32-14.327-32-32v0-512c0-17.673 14.327-32 32-32v0h960c17.673 0 32 14.327 32 32v0 704c0 17.673-14.327 32-32 32v0zM256 896h448v-192h-96c-17.673 0-32-14.327-32-32v0-174.848l-128-85.376v68.224c0 17.673-14.327 32-32 32v0h-160zM64 448h320v-448h-320zM960 0h-512v334.848l177.728 118.528c8.65 5.816 14.266 15.563 14.272 26.623v160.001h320zM128 384h64v-64h-64v64zM256 384h64v-64h-64v64zM128 256h64v-64h-64v64zM256 256h64v-64h-64v64zM320 832h64v-64h-64v64zM448 832h64v-64h-64v64zM320 704h64v-64h-64v64zM448 704h64v-64h-64v64zM576 832h64v-64h-64v64zM864 320h-128c-17.673 0-32-14.327-32-32v0-128c0-17.673 14.327-32 32-32v0h128c17.673 0 32 14.327 32 32v0 128c0 17.673-14.327 32-32 32v0zM832 192h-64v64h64zM704 544v-128c0-17.673 14.327-32 32-32v0h128c17.673 0 32 14.327 32 32v0 128c0 17.673-14.327 32-32 32v0h-128c-17.673 0-32-14.327-32-32v0zM768 512h64v-64h-64z" />
</font>
</defs>
</svg>
